<?xml version="1.0" standalone="no"?>
<!DOCTYPE svg PUBLIC "-//W3C//DTD SVG 1.1//EN" "http://www.w3.org/Graphics/SVG/1.1/DTD/svg11.dtd" >
<svg xmlns="http://www.w3.org/2000/svg">
<metadata></metadata>
<defs>
<font id="share-regularregular" horiz-adv-x="1024" >
<font-face units-per-em="2048" ascent="1655" descent="-393" />
<missing-glyph horiz-adv-x="532" />
<glyph unicode="fi" horiz-adv-x="1054" d="M848 1407v-143q-141 41 -285 41q-61 0 -100.5 -9.5t-59.5 -30.5t-27 -45.5t-7 -62.5v-133h522v-1024h-174v874h-348v-874h-174v874h-134v150h134v119q0 152 78 228.5t264 76.5q132 0 311 -41z" />
<glyph unicode="fl" horiz-adv-x="1085" d="M565 874h-196v-874h-174v874h-134v150h134v119q0 152 78 228.5t264 76.5q93 0 180 -14h174v-1194q0 -55 14 -76t53 -21q10 0 21.5 2t22 5.5t12.5 3.5v-144q-68 -14 -123 -14q-33 0 -61.5 11t-55 35.5t-42 72.5t-15.5 114v1065q-105 11 -154 11q-61 0 -100.5 -9.5 t-59.5 -30.5t-27 -45.5t-7 -62.5v-133h196v-150z" />
<glyph unicode="&#xd;" horiz-adv-x="532" />
<glyph unicode=" "  horiz-adv-x="532" />
<glyph unicode="&#x09;" horiz-adv-x="532" />
<glyph unicode="&#xa0;" horiz-adv-x="532" />
<glyph unicode="!" horiz-adv-x="512" d="M358 0h-204v205h204v-205zM342 426h-174v1008h174v-1008z" />
<glyph unicode="&#x22;" horiz-adv-x="737" d="M307 1249l-41 -321h-112l-41 321v185h194v-185zM625 1249l-41 -321h-113l-41 321v185h195v-185z" />
<glyph unicode="#" horiz-adv-x="962" d="M545 522l37 410h-164l-37 -410h164zM840 369h-144l-32 -369h-164l32 369h-163l-33 -369h-164l33 369h-144l13 153h143l37 410h-143l12 153h143l31 349h164l-31 -349h164l31 349h163l-30 -349h143l-12 -153h-144l-36 -410h143z" />
<glyph unicode="$" horiz-adv-x="962" d="M567 -225h-174v215q-106 3 -200 30v150q122 -31 237 -31q102 0 142 57.5t40 180.5q0 128 -35.5 186t-109.5 72q-299 62 -299 377q0 290 225 352v233h174v-215q71 -2 181 -30v-150q-136 31 -218 31q-180 0 -180 -199q0 -105 31.5 -158.5t112.5 -70.5q154 -32 227.5 -124.5 t73.5 -283.5q0 -180 -57 -271t-171 -120v-231z" />
<glyph unicode="%" horiz-adv-x="1753" d="M594 1016q0 167 -31 239t-108 72t-108.5 -71.5t-31.5 -239.5t31.5 -239.5t108.5 -71.5t108 72t31 239zM735 1024q0 -83 -6 -144.5t-24 -120t-48.5 -95t-81 -58.5t-120.5 -22t-120.5 22t-81 58.5t-49 94.5t-24.5 120t-6 145t6.5 143t24 116t48.5 90.5t81.5 54.5t120.5 20 q71 0 121.5 -20.5t81 -54.5t48 -90t23.5 -116t6 -143zM1208 1434l-501 -1434h-160l502 1434h159zM1438 418q0 167 -31.5 239t-108.5 72t-108 -71.5t-31 -239.5t31 -240t108 -72t108.5 72.5t31.5 239.5zM1579 426q0 -83 -6 -145t-24.5 -120t-49 -94.5t-81 -58.5t-120.5 -22 t-120.5 22t-81 58.5t-48.5 95t-24 120t-6 144.5t6 143t24 116t48.5 90.5t81 54.5t120.5 20q71 0 121.5 -20.5t81 -54.5t48.5 -90t24 -116t6 -143z" />
<glyph unicode="&#x26;" horiz-adv-x="1038" d="M133 406q0 371 164 430q-73 43 -105 103.5t-32 156.5q0 89 19 153.5t50.5 102.5t81.5 60t100.5 29t120.5 7q108 0 205 -31v-149q-32 8 -100.5 19t-108.5 11q-44 0 -74.5 -6.5t-60 -24.5t-44.5 -56.5t-15 -96.5q0 -213 172 -213h481v-149h-170v-742q-156 -24 -334 -24 q-176 0 -263 98.5t-87 321.5zM485 135q88 0 170 17v600h-180q-52 0 -86.5 -29.5t-51 -86t-22.5 -114.5t-6 -137q0 -117 48.5 -183.5t127.5 -66.5z" />
<glyph unicode="'" horiz-adv-x="419" d="M307 1249l-41 -321h-112l-41 321v185h194v-185z" />
<glyph unicode="(" horiz-adv-x="655" d="M113 717q0 299 57 529t192 433h170q-129 -219 -187 -444.5t-58 -517.5t58 -518t187 -445h-170q-135 203 -192 433.5t-57 529.5z" />
<glyph unicode=")" horiz-adv-x="655" d="M543 717q0 -298 -57.5 -529t-192.5 -434h-170q129 219 187.5 445t58.5 518q0 291 -58.5 517t-187.5 445h170q135 -203 192.5 -433.5t57.5 -528.5z" />
<glyph unicode="*" horiz-adv-x="983" d="M901 1118l-301 -63l217 -252l-147 -107l-181 291l-186 -291l-143 109l219 250l-297 65l55 164l289 -117l-27 312h185l-27 -312l293 113z" />
<glyph unicode="+" horiz-adv-x="1126" d="M952 563h-307v-321h-164v321h-309v154h309v323h164v-323h307v-154z" />
<glyph unicode="," horiz-adv-x="471" d="M338 0l-148 -287h-139l82 287v205h205v-205z" />
<glyph unicode="-" horiz-adv-x="1013" d="M840 563h-666v154h666v-154z" />
<glyph unicode="." horiz-adv-x="471" d="M338 0h-205v205h205v-205z" />
<glyph unicode="/" horiz-adv-x="665" d="M655 1659l-483 -1884h-162l484 1884h161z" />
<glyph unicode="0" horiz-adv-x="962" d="M672 723q0 119 -3 200t-11 149t-21 108t-34.5 68.5t-51 39t-70.5 10.5q-50 0 -82.5 -17.5t-54.5 -54t-33 -107.5t-15.5 -161.5t-4.5 -234.5q0 -117 2.5 -197t10 -150.5t20.5 -112.5t34.5 -72.5t51.5 -43t71 -12.5q42 0 71.5 12.5t51 43t34.5 72.5t21 112.5t10.5 150.5 t2.5 197zM846 733q0 -135 -5 -230.5t-19 -185.5t-39.5 -147t-66 -101t-98.5 -63.5t-137 -19.5q-68 0 -120 15.5t-90.5 44t-65.5 77t-44.5 105t-27 138.5t-13 167t-3.5 200q0 110 3.5 191.5t13 160t27 132.5t44.5 100.5t65.5 73.5t90.5 42t120 15t120.5 -15t91 -42t66 -73.5 t44.5 -100.5t26.5 -132.5t13 -159.5t3.5 -192z" />
<glyph unicode="1" horiz-adv-x="962" d="M809 0h-625v154h248v1118l-268 -107v166l248 103h194v-1280h203v-154z" />
<glyph unicode="2" horiz-adv-x="962" d="M788 0h-655v180l307 467q18 27 46 68.5t38 56.5t26.5 45.5t21.5 49.5t12 53t8.5 71.5t1.5 91.5q0 215 -174 215q-97 0 -250 -34v149q2 0 33 7t60.5 12.5t74 10.5t82.5 5q179 0 263.5 -95t84.5 -288q0 -152 -32.5 -240t-133.5 -241l-285 -432h471v-152z" />
<glyph unicode="3" horiz-adv-x="962" d="M764 406q0 -223 -85.5 -321.5t-260.5 -98.5q-115 0 -268 34v154q162 -33 266 -33q79 0 125.5 63.5t46.5 180.5q0 152 -36 218.5t-140 66.5h-168v149h147q174 0 174 252q0 119 -37.5 173t-115.5 54q-85 0 -252 -34v149q2 0 33 7t61 12.5t74 10.5t80 5q82 0 141 -19 t103 -63.5t65.5 -122t21.5 -190.5t-37.5 -192.5t-117.5 -104.5q96 -13 138 -102t42 -248z" />
<glyph unicode="4" horiz-adv-x="962" d="M864 319h-143v-319h-174v319h-406v177l203 938h166l-195 -965h232l14 467h160v-467h143v-150z" />
<glyph unicode="5" horiz-adv-x="962" d="M737 1284h-368v-422h41q110 0 182 -24.5t113 -79.5t57 -131.5t16 -192.5q0 -127 -22 -214t-68 -138.5t-108.5 -73.5t-149.5 -22q-30 0 -58.5 2t-61 7t-47.5 7.5t-51 10t-38 7.5v150q162 -35 264 -35q87 0 125.5 71t38.5 208q0 174 -39.5 236.5t-142.5 62.5h-225v721h542 v-150z" />
<glyph unicode="6" horiz-adv-x="962" d="M842 451q0 -465 -363 -465q-81 0 -134 17t-97.5 65t-68.5 137t-37 228.5t-13 344.5q0 165 20.5 285.5t55 194t90.5 116.5t116.5 58.5t143.5 15.5q89 0 197 -31v-145q-6 1 -28 6.5t-33 8t-33.5 6.5t-39.5 6t-39.5 4t-43.5 2q-61 0 -99 -16t-69 -64t-45.5 -140t-18.5 -239 q98 63 217 63q84 0 143.5 -21.5t94 -57t53.5 -97t25 -125t6 -157.5zM506 762q-105 0 -203 -55q1 -190 10.5 -305t33.5 -174t53 -77t79 -18q189 0 189 299q0 76 -3 123t-12 91t-26.5 66.5t-47 36t-73.5 13.5z" />
<glyph unicode="7" horiz-adv-x="962" d="M748 1235l-330 -1235h-182l342 1280h-455v154h625v-199z" />
<glyph unicode="8" horiz-adv-x="962" d="M692 385q0 89 -9 140t-38.5 90.5t-85 55t-147.5 15.5q-58 -32 -87 -65t-42 -87.5t-13 -148.5q0 -141 50.5 -196.5t160.5 -55.5t160.5 55.5t50.5 196.5zM668 1071q0 117 -43.5 173t-143.5 56t-143 -56t-43 -173q0 -146 50.5 -203t195.5 -57q127 53 127 260zM866 406 q0 -218 -90 -319t-295 -101t-295 101t-90 319q0 46 6 85.5t13.5 67t24 53.5t27.5 40.5t34.5 33.5t34.5 26.5t38 24.5q-71 34 -110 121t-39 195q0 112 25.5 190t74 122t111 63.5t145.5 19.5t145.5 -19.5t111.5 -63.5t74.5 -122.5t25.5 -189.5q0 -107 -34 -173t-126 -118 q188 -44 188 -356z" />
<glyph unicode="9" horiz-adv-x="962" d="M115 1018q0 115 27.5 200t77.5 134.5t113.5 72.5t141.5 23q69 0 118.5 -12.5t90.5 -45t67 -84.5t43.5 -135t25 -193t7.5 -261q0 -123 -6 -220.5t-20 -171.5t-31.5 -128.5t-45 -92t-56.5 -61t-70 -36t-81 -17t-95 -4.5q-42 0 -103 10t-94 20v150q6 -1 28 -6.5t33 -8 t33.5 -6.5t39.5 -6t39.5 -4t43.5 -2q46 0 76 9.5t56.5 36t41 77.5t24 131t11.5 199q-99 -62 -215 -62q-59 0 -105.5 11t-80 30.5t-58 52.5t-39.5 71t-23.5 92t-11.5 109t-3 128zM451 672q96 0 202 55q-1 128 -5 219.5t-14.5 155.5t-24 102.5t-35.5 60t-45.5 28.5t-59.5 7 q-180 0 -180 -299q0 -76 3 -123t12 -91t26.5 -66.5t47 -35.5t73.5 -13z" />
<glyph unicode=":" horiz-adv-x="471" d="M338 0h-205v205h205v-205zM338 819h-205v205h205v-205z" />
<glyph unicode=";" horiz-adv-x="471" d="M338 0l-148 -287h-139l82 287v205h205v-205zM338 819h-205v205h205v-205z" />
<glyph unicode="&#x3c;" horiz-adv-x="1126" d="M952 215l-778 358v215l778 367v-188l-635 -279l635 -280v-193z" />
<glyph unicode="=" horiz-adv-x="1126" d="M952 358h-778v154h778v-154zM952 768h-778v154h778v-154z" />
<glyph unicode="&#x3e;" horiz-adv-x="1126" d="M952 573l-778 -358v193l647 280l-647 279v188l778 -367v-215z" />
<glyph unicode="?" horiz-adv-x="737" d="M418 0h-205v205h205v-205zM666 1106q0 -118 -24.5 -173t-129.5 -179l-111 -131v-197h-174v248l123 145q101 120 121.5 163.5t20.5 141.5q0 95 -44 134.5t-126 39.5t-250 -32v149q146 33 229 33q72 0 125 -8t100.5 -30t76.5 -59.5t46 -98.5t17 -146z" />
<glyph unicode="@" horiz-adv-x="1669" d="M967 575v392q-40 10 -76 10q-52 0 -91 -11t-74 -40t-54 -87.5t-19 -144.5q0 -81 10.5 -133t32.5 -78t47.5 -35.5t63.5 -9.5q82 0 121 42t39 95zM1495 821q0 -85 -4 -151.5t-15 -137t-32 -120.5t-53 -91t-81 -62t-112 -21q-62 0 -120 37.5t-72 115.5q-30 -43 -94 -69.5 t-148 -26.5q-43 0 -78.5 8.5t-73.5 34t-64 67t-42.5 113.5t-16.5 168q0 103 22.5 179.5t59.5 123.5t93.5 75.5t117 39t136.5 10.5q82 0 208 -29v-632q0 -33 20.5 -57.5t55.5 -24.5q74 0 98.5 108.5t24.5 341.5q0 107 -6.5 176.5t-27 127t-52.5 89t-89.5 53.5t-130.5 29 t-183 7q-105 0 -179 -11t-130.5 -40t-90.5 -71t-55.5 -112.5t-29 -155t-7.5 -206.5q0 -113 6.5 -189.5t25 -146t51.5 -111t87 -73t130.5 -44t182.5 -12.5q85 0 322 25v-146q-173 -24 -322 -24q-133 0 -231.5 16.5t-171.5 54.5t-120.5 92.5t-77 138t-41 183.5t-11.5 236 q0 175 23 299t70 211t127 137t186 72t256 22q126 0 216.5 -10t167.5 -36.5t126 -71t84 -115t50 -166.5t15 -228z" />
<glyph unicode="A" d="M680 516l-168 782l-166 -782h334zM973 0h-182l-78 362h-400l-80 -362h-182l346 1434h236z" />
<glyph unicode="B" horiz-adv-x="1048" d="M743 418q0 137 -45 199.5t-155 62.5h-191v-535q103 -10 189 -10q46 0 79 11t63 40t45 87t15 145zM713 1059q0 133 -39.5 187t-151.5 54q-44 0 -86.5 -3t-63.5 -6l-20 -3v-461h170q30 0 52 3t50 16.5t46 37t30.5 68.5t12.5 107zM926 432q0 -126 -28 -214t-82.5 -138 t-126 -72t-167.5 -22q-76 0 -163 3.5t-136 6.5l-49 4v1434q191 14 324 14q193 0 293 -88.5t100 -286.5q0 -119 -48 -199.5t-116 -109.5q199 -70 199 -332z" />
<glyph unicode="C" horiz-adv-x="866" d="M774 170v-150q-128 -34 -227 -34q-92 0 -156 20t-115.5 69t-81.5 135.5t-45.5 216t-15.5 312.5q0 151 11 262.5t36.5 190t59 128.5t85.5 78.5t109 39t137 10.5q89 0 203 -29v-151q-111 26 -239 26q-61 0 -98.5 -19.5t-67 -78.5t-42 -173t-12.5 -298q0 -190 13 -308.5 t43.5 -178.5t67.5 -79.5t98 -19.5q105 0 237 31z" />
<glyph unicode="D" horiz-adv-x="1077" d="M762 725q0 178 -15 295t-45 176t-65 80.5t-86 21.5l-199 -8v-1147q111 -8 197 -8q50 0 87.5 29.5t66.5 96.5t44 183.5t15 280.5zM944 739q0 -182 -17.5 -313t-49 -216t-84 -135t-115 -69.5t-148.5 -19.5q-71 0 -160 3.5t-142 6.5l-54 4v1434q191 14 332 14 q93 0 157.5 -15.5t121 -60t89.5 -123t51.5 -205t18.5 -305.5z" />
<glyph unicode="E" horiz-adv-x="968" d="M846 0h-672v1434h672v-150h-494v-469h443v-149h-443v-516h494v-150z" />
<glyph unicode="F" horiz-adv-x="937" d="M846 1284h-494v-489h443v-150h-443v-645h-178v1434h672v-150z" />
<glyph unicode="G" d="M881 754v-734q-185 -34 -322 -34q-98 0 -165 20t-119.5 69t-82 136t-44.5 215t-15 313q0 151 12 262.5t39.5 190t64 128.5t93 78.5t118.5 39t148 10.5q107 0 230 -29v-147q-140 26 -267 26q-57 0 -94.5 -12t-71 -46.5t-51.5 -98.5t-28.5 -166t-10.5 -250q0 -129 6 -223 t19 -159.5t30.5 -106t46 -63t58.5 -30.5t74 -8q63 0 162 15v454h-183v150h353z" />
<glyph unicode="H" horiz-adv-x="1126" d="M952 0h-178v659h-422v-659h-178v1434h178v-623h422v623h178v-1434z" />
<glyph unicode="I" horiz-adv-x="649" d="M557 0h-465v150h144v1134h-144v150h465v-150h-143v-1134h143v-150z" />
<glyph unicode="J" horiz-adv-x="819" d="M655 514q0 -111 -8.5 -192.5t-28.5 -140.5t-47.5 -96.5t-70 -59.5t-92 -30.5t-117.5 -8.5q-87 0 -219 20v152q112 -19 207 -19q79 0 118.5 25t59.5 102.5t20 233.5v784h-330v150h508v-920z" />
<glyph unicode="K" horiz-adv-x="1007" d="M946 0h-201l-319 657l-74 -122v-535h-178v1434h178v-629l383 629h191l-389 -627z" />
<glyph unicode="L" horiz-adv-x="839" d="M809 0h-635v1434h178v-1278h457v-156z" />
<glyph unicode="M" horiz-adv-x="1290" d="M1116 0h-170v1286l-219 -805h-170l-219 805v-1286h-164v1434h289l186 -734l185 734h282v-1434z" />
<glyph unicode="N" horiz-adv-x="1120" d="M946 0h-293l-313 1282v-1282h-166v1434h291l315 -1282v1282h166v-1434z" />
<glyph unicode="O" horiz-adv-x="1122" d="M807 723q0 228 -24 351t-75.5 173.5t-146.5 50.5t-146.5 -50.5t-75.5 -173.5t-24 -351q0 -223 23.5 -349.5t76.5 -182.5t146 -56t146 56t76.5 182.5t23.5 349.5zM989 733q0 -157 -12 -271.5t-41 -207.5t-78 -150.5t-122.5 -87.5t-174.5 -30t-174.5 30t-122.5 87.5 t-78 150.5t-41 207.5t-12 271.5q0 150 12 260t41 199t78 143.5t122.5 83.5t174.5 29t174.5 -29t122.5 -83.5t78 -143.5t41 -199t12 -260z" />
<glyph unicode="P" d="M739 989q0 159 -44 235t-150 76q-50 0 -98.5 -3t-71.5 -6l-23 -3v-598h193q194 0 194 299zM922 1004q0 -239 -92 -351t-306 -112h-172v-541h-178v1434q176 14 346 14q91 0 161 -22.5t115 -61t74 -95.5t40.5 -121.5t11.5 -143.5z" />
<glyph unicode="Q" horiz-adv-x="1122" d="M1030 -172l-469 158q-101 0 -174.5 30t-122.5 87.5t-78 150.5t-41 207.5t-12 271.5q0 150 12 260t41 199t78 143.5t122.5 83.5t174.5 29t174.5 -29t122.5 -83.5t78 -143.5t41 -199t12 -260q0 -273 -45.5 -442.5t-157.5 -243.5l244 -47v-172zM807 723q0 228 -24 351 t-75.5 173.5t-146.5 50.5t-146.5 -50.5t-75.5 -173.5t-24 -351q0 -223 23.5 -349.5t76.5 -182.5t146 -56t146 56t76.5 182.5t23.5 349.5z" />
<glyph unicode="R" horiz-adv-x="1054" d="M918 1030q0 -326 -205 -407l280 -623h-196l-262 594h-183v-594h-178v1434q176 14 346 14q114 0 193 -29t123 -86t63 -130.5t19 -172.5zM735 1016q0 153 -42 218.5t-148 65.5q-50 0 -98.5 -3t-71.5 -6l-23 -3v-545h193q46 0 78.5 11.5t59 41t39.5 84t13 136.5z" />
<glyph unicode="S" horiz-adv-x="888" d="M780 408q0 -124 -28 -208.5t-84 -130.5t-126 -64.5t-167 -18.5q-121 0 -238 30v150q122 -31 258 -31q105 0 154 62t49 190q0 143 -39 202t-127 77q-172 36 -242.5 121.5t-70.5 265.5q0 395 403 395q103 0 217 -31v-149q-131 30 -237 30q-85 0 -143 -55t-58 -168 q0 -125 31 -172t127 -67q80 -17 134.5 -42.5t99 -73t66 -125t21.5 -187.5z" />
<glyph unicode="T" horiz-adv-x="870" d="M840 1278h-316v-1278h-178v1278h-315v156h809v-156z" />
<glyph unicode="U" horiz-adv-x="1095" d="M932 1434v-1055q0 -201 -100 -297t-283 -96q-184 0 -284.5 96t-100.5 297v1055h178v-1094q0 -103 55.5 -154t151.5 -51t150.5 50.5t54.5 154.5v1094h178z" />
<glyph unicode="V" horiz-adv-x="968" d="M897 1434l-301 -1434h-244l-280 1434h180l225 -1254l244 1254h176z" />
<glyph unicode="W" horiz-adv-x="1206" d="M1104 1434l-70 -1434h-278l-138 623l-149 -623h-266l-70 1434h158l61 -1321l185 716h168l186 -716l63 1321h150z" />
<glyph unicode="X" horiz-adv-x="1015" d="M944 0h-201l-233 549l-246 -549h-192l348 741l-318 693h195l215 -494l221 494h191l-324 -691z" />
<glyph unicode="Y" horiz-adv-x="1005" d="M965 1434l-373 -768v-666h-184v666l-367 768h197l270 -596l270 596h187z" />
<glyph unicode="Z" horiz-adv-x="892" d="M801 1253l-527 -1101h506v-152h-688v180l529 1102h-482v152h662v-181z" />
<glyph unicode="[" horiz-adv-x="665" d="M563 -246h-389v1925h389v-153h-225v-1618h225v-154z" />
<glyph unicode="\" horiz-adv-x="665" d="M494 -225l-484 1884h162l483 -1884h-161z" />
<glyph unicode="]" horiz-adv-x="665" d="M492 -246h-390v154h226v1618h-226v153h390v-1925z" />
<glyph unicode="^" horiz-adv-x="997" d="M905 860h-186l-213 574l-234 -574h-180l295 696h234z" />
<glyph unicode="_" horiz-adv-x="1044" d="M1038 -348h-1032v153h1032v-153z" />
<glyph unicode="`" horiz-adv-x="620" d="M532 1188h-165l-271 276h223z" />
<glyph unicode="a" horiz-adv-x="985" d="M893 0h-62q-25 0 -51 6.5t-57 30.5t-45 63q-79 -114 -270 -114q-49 0 -90 7t-82.5 27t-69.5 52.5t-46 87.5t-18 129q0 164 96.5 253t268.5 89h162v110q0 67 -40 108.5t-114 41.5q-146 0 -297 -43v149q135 41 277 41q195 0 271.5 -79t76.5 -259v-491q0 -66 90 -66v-143z M449 133q49 0 87 16t56.5 40.5t27.5 46.5t9 40v216h-172q-73 0 -124.5 -48t-51.5 -143q0 -92 41.5 -130t126.5 -38z" />
<glyph unicode="b" horiz-adv-x="1021" d="M889 578q0 -228 -42 -355t-135 -182t-259 -55q-52 0 -100 3t-68 5t-68 8.5t-53 7.5v1424h174v-486q96 90 227 90q175 0 249.5 -112t74.5 -348zM532 891q-81 0 -137.5 -56.5t-56.5 -117.5v-576q62 -8 135 -8q72 0 119 25.5t73 81.5t36 130.5t10 186.5q0 192 -39.5 263 t-139.5 71z" />
<glyph unicode="c" horiz-adv-x="827" d="M715 170v-152q-117 -32 -223 -32q-76 0 -128.5 11.5t-99 45.5t-73.5 94t-42.5 158t-15.5 237q0 272 84.5 389t271.5 117q100 0 226 -30v-152q-138 29 -238 29q-61 0 -96.5 -35t-52.5 -120.5t-17 -237.5q0 -90 8 -154.5t21 -102.5t35 -60t45.5 -29t56.5 -7q32 0 60.5 2 t56 6t42.5 6.5t44 9t35 7.5z" />
<glyph unicode="d" horiz-adv-x="1032" d="M868 0h-143l-14 86q-97 -100 -244 -100q-188 0 -261 115t-73 366q0 302 106 436.5t341 134.5q52 0 114 -8v404h174v-1434zM500 133q88 0 141 55.5t53 118.5v576q-62 8 -135 8q-58 0 -100.5 -19.5t-71 -55t-45.5 -91.5t-24 -123t-7 -156q0 -179 43.5 -246t145.5 -67z" />
<glyph unicode="e" horiz-adv-x="958" d="M836 451h-529q2 -99 14.5 -163.5t37 -97.5t52.5 -45t70 -12q131 0 275 33v-148q-49 -13 -123.5 -22.5t-130.5 -9.5q-77 0 -129.5 10.5t-101.5 43t-77 90t-44.5 152.5t-16.5 230q0 278 92 402t281 124q330 0 330 -434v-153zM502 893q-100 0 -143 -64.5t-50 -238.5h357v55 q0 122 -38.5 185t-125.5 63z" />
<glyph unicode="f" horiz-adv-x="636" d="M616 874h-247v-874h-174v874h-134v150h134v160q0 129 70.5 196.5t189.5 67.5q25 0 49 -1.5t46 -5t36 -6t34.5 -7t26.5 -5.5v-145q-95 22 -166 22q-54 0 -83 -28t-29 -74v-174h247v-150z" />
<glyph unicode="g" horiz-adv-x="1067" d="M911 666q0 -174 -101.5 -259t-311.5 -85q-78 0 -136 12q-20 -45 -20 -88q0 -28 10 -58q196 17 256 17q80 0 137.5 -12.5t105.5 -45t72.5 -94t24.5 -153.5q0 -99 -52 -165.5t-136.5 -95t-198.5 -28.5q-72 0 -200.5 13t-190.5 24v147q202 -35 408 -35q98 0 145 38.5 t47 101.5q0 80 -37.5 115.5t-134.5 35.5q-56 0 -166 -7t-172 -15q-35 32 -60.5 88.5t-25.5 103.5q0 111 55 172q-106 80 -106 289q0 86 23 150t61 103t94.5 62.5t115.5 32t132 8.5q90 0 160 -28l297 14v-154l-142 7q47 -86 47 -211zM737 682q0 211 -209 211 q-129 0 -180 -52.5t-51 -174.5q0 -97 45 -150t156 -53q55 0 95 8.5t74.5 31.5t52 67.5t17.5 111.5z" />
<glyph unicode="h" horiz-adv-x="1036" d="M338 0h-174v1434h174v-486q99 90 235 90q171 0 240.5 -85t69.5 -277v-676h-174v696q0 104 -34 149.5t-132 45.5q-83 0 -144 -57t-61 -117v-717z" />
<glyph unicode="i" horiz-adv-x="501" d="M348 1249h-194v185h194v-185zM338 0h-174v1024h174v-1024z" />
<glyph unicode="j" horiz-adv-x="501" d="M338 1024v-1112q0 -121 -65.5 -195.5t-188.5 -74.5q-86 0 -178 10v145q86 -8 151 -8q51 0 79 29.5t28 83.5v1122h174zM348 1249h-194v185h194v-185z" />
<glyph unicode="k" horiz-adv-x="950" d="M879 0h-203l-277 510l-61 -72v-438h-174v1434h174v-779l313 369h213l-346 -395z" />
<glyph unicode="l" horiz-adv-x="542" d="M461 154v-144q-77 -16 -123 -16q-33 0 -61.5 11t-55 36t-42 73.5t-15.5 114.5v1205h174v-1194q0 -55 14.5 -76t53.5 -21q10 0 21 2t21.5 5.5t12.5 3.5z" />
<glyph unicode="m" horiz-adv-x="1495" d="M338 0h-174v1024h143l15 -90q93 104 231 104q171 0 244 -129q99 129 258 129q155 0 220.5 -86t65.5 -276v-676h-174v696q0 103 -29.5 149t-113.5 46q-78 0 -131 -56.5t-53 -117.5v-717h-174v696q0 103 -30 149t-114 46q-78 0 -131 -56.5t-53 -117.5v-717z" />
<glyph unicode="n" horiz-adv-x="1036" d="M338 0h-174v1024h143l15 -92q100 106 251 106q171 0 240.5 -85t69.5 -277v-676h-174v696q0 104 -34 149.5t-132 45.5q-83 0 -144 -57t-61 -117v-717z" />
<glyph unicode="o" horiz-adv-x="1044" d="M911 532q0 -159 -24.5 -266.5t-75.5 -168.5t-120 -86t-169 -25t-169 25t-120 86t-75.5 168.5t-24.5 266.5q0 261 94.5 383.5t294.5 122.5t294.5 -122.5t94.5 -383.5zM733 502q0 221 -45 307t-166 86t-166 -86t-45 -307q0 -201 48 -287t163 -86t163 86t48 287z" />
<glyph unicode="p" horiz-adv-x="1021" d="M338 -348h-174v1372h143l17 -88q97 102 241 102q175 0 249.5 -112t74.5 -348q0 -228 -42 -355t-135 -182t-259 -55q-53 0 -115 8v-342zM532 891q-81 0 -137.5 -56.5t-56.5 -117.5v-576q62 -8 135 -8q72 0 119 25.5t73 81.5t36 130.5t10 186.5q0 192 -39.5 263t-139.5 71z " />
<glyph unicode="q" horiz-adv-x="1032" d="M868 -348h-174v418q-94 -84 -227 -84q-188 0 -261 115t-73 366q0 302 106 436.5t341 134.5q52 0 99.5 -3t68 -5t67.5 -8.5t53 -7.5v-1362zM500 133q88 0 141 55.5t53 118.5v576q-62 8 -135 8q-58 0 -100.5 -19.5t-71 -55t-45.5 -91.5t-24 -123t-7 -156q0 -179 43.5 -246 t145.5 -67z" />
<glyph unicode="r" horiz-adv-x="692" d="M338 0h-174v1024h143l12 -104q79 118 213 118q67 0 109 -10v-182q-79 18 -123 18q-48 0 -84.5 -20.5t-56.5 -55t-29.5 -74t-9.5 -83.5v-631z" />
<glyph unicode="s" horiz-adv-x="823" d="M721 297q0 -311 -344 -311q-126 0 -246 32v150q168 -33 260 -33q74 0 111 45.5t37 106.5q0 75 -27 109.5t-102 47.5q-153 27 -220 97t-67 188q0 158 94 233.5t250 75.5q30 0 58.5 -2.5t54 -7t41 -8t38.5 -9.5t27 -7v-150q-12 3 -48.5 12t-55.5 13t-55.5 8t-75.5 4 q-46 0 -77 -12.5t-46 -35.5t-21 -47.5t-6 -56.5q0 -113 131 -133q157 -26 223 -99.5t66 -209.5z" />
<glyph unicode="t" horiz-adv-x="657" d="M596 870h-238v-624q0 -17 4.5 -34.5t14.5 -36.5t32 -30.5t52 -11.5q54 0 135 21v-144q-81 -24 -176 -24q-119 0 -177.5 74t-58.5 196v614h-133v154h133v246h174v-246h238v-154z" />
<glyph unicode="u" horiz-adv-x="1005" d="M842 0h-144l-14 84q-89 -98 -235 -98q-165 0 -230 87.5t-65 282.5v668h174v-688q0 -106 29.5 -154.5t117.5 -48.5q79 0 134.5 54t58.5 114v723h174v-1024z" />
<glyph unicode="v" horiz-adv-x="946" d="M874 1024l-274 -1024h-252l-276 1024h186l221 -879l215 879h180z" />
<glyph unicode="w" horiz-adv-x="1372" d="M1290 1024l-203 -1024h-268l-129 555l-141 -555h-262l-205 1024h180l166 -893l182 709h174l170 -709l166 893h170z" />
<glyph unicode="x" horiz-adv-x="950" d="M879 0h-205l-195 379l-205 -379h-192l297 528l-273 496h201l176 -338l179 338h190l-277 -487z" />
<glyph unicode="y" horiz-adv-x="948" d="M877 1024l-297 -1114q-18 -69 -35 -111t-45 -81.5t-71 -57.5t-103 -18q-42 0 -117 12v149q58 -8 106 -8q57 0 82 92l33 113h-41l-317 1024h188l238 -846l200 846h179z" />
<glyph unicode="z" horiz-adv-x="825" d="M723 842l-442 -690h421v-152h-610v164l445 708h-404v152h590v-182z" />
<glyph unicode="{" horiz-adv-x="665" d="M72 604v225q26 0 47 3.5t44 15.5t38.5 32.5t26 56.5t10.5 85v408q0 138 51.5 199t171.5 61q37 0 92 -11v-139q-36 6 -64 6q-48 0 -70 -20.5t-22 -65.5v-499q0 -57 -20 -103.5t-53 -75t-69 -45t-73 -22.5q82 -9 148.5 -71t66.5 -171v-500q0 -45 22 -65.5t70 -20.5 q22 0 64 7v-140q-50 -10 -92 -10q-120 0 -171.5 61t-51.5 199v408q0 61 -14.5 101.5t-41 59t-52 25t-58.5 6.5z" />
<glyph unicode="|" horiz-adv-x="593" d="M379 -225h-164v1884h164v-1884z" />
<glyph unicode="}" horiz-adv-x="665" d="M594 829v-225q-33 0 -58.5 -6.5t-52 -25t-41 -59t-14.5 -101.5v-408q0 -138 -51.5 -199t-171.5 -61q-42 0 -92 10v140q42 -7 63 -7q48 0 70 20.5t22 65.5v500q0 109 66.5 171t148.5 71q-37 6 -73 22.5t-69 45t-53 75t-20 103.5v499q0 45 -22 65.5t-70 20.5q-27 0 -63 -6 v139q55 11 92 11q120 0 171.5 -61t51.5 -199v-408q0 -49 10.5 -85t26 -56.5t38.5 -32.5t44 -15.5t47 -3.5z" />
<glyph unicode="~" horiz-adv-x="1044" d="M174 545v160q110 67 209 67q56 0 150.5 -40t146.5 -40q82 0 190 74v-160q-100 -67 -208 -67q-58 0 -149 39.5t-148 39.5q-84 0 -191 -73z" />
<glyph unicode="&#xa1;" horiz-adv-x="512" d="M154 1024h204v-205h-204v205zM170 598h174v-1008h-174v1008z" />
<glyph unicode="&#xa2;" horiz-adv-x="962" d="M649 -225h-164v213q-99 10 -157.5 56.5t-91.5 164t-33 321.5q0 244 67.5 362t214.5 138v199h164v-199q55 -7 135 -24v-152q-138 29 -237 29q-61 0 -96.5 -35.5t-52.5 -121t-17 -237.5q0 -90 8 -154t21 -102.5t35 -60t45.5 -28.5t56.5 -7q32 0 60.5 2t55.5 6t42.5 6.5 t43.5 9t35 7.5v-152q-53 -16 -135 -26v-215z" />
<glyph unicode="&#xa3;" horiz-adv-x="962" d="M457 975v-129h262v-150h-262v-546h405v-150h-727v150h144v546h-144v150h144v115q0 121 13.5 205.5t40 140t72 86.5t102 43t138.5 12q78 0 197 -18v-154q-103 18 -185 18q-65 0 -100.5 -10t-60 -45.5t-32 -95.5t-7.5 -168z" />
<glyph unicode="&#xa4;" horiz-adv-x="1167" d="M985 96l-123 121q-112 -84 -278 -84q-168 0 -283 84l-121 -121l-114 115l129 129q-62 114 -62 274q0 159 62 273l-129 131l114 115l121 -121q119 84 283 84q162 0 278 -84l123 121l115 -115l-129 -131q61 -113 61 -273q0 -161 -61 -274l129 -129zM854 614 q0 161 -75 249.5t-195 88.5t-196.5 -89t-76.5 -249t76.5 -249t196.5 -89t195 88.5t75 249.5z" />
<glyph unicode="&#xa5;" horiz-adv-x="962" d="M838 236h-267v-236h-184v236h-266v153h266v154h-266v153h260l-340 738h197l249 -560l248 560h187l-347 -738h263v-153h-267v-154h267v-153z" />
<glyph unicode="&#xa6;" horiz-adv-x="593" d="M379 -225h-164v737h164v-737zM379 922h-164v737h164v-737z" />
<glyph unicode="&#xa7;" horiz-adv-x="962" d="M170 711q0 148 127 229q-43 30 -66.5 85.5t-23.5 121.5q0 81 26 140t73.5 93.5t108 51t136.5 16.5q100 0 219 -29v-151q-6 1 -22.5 5.5t-23 6t-21.5 5.5t-23.5 5.5t-23.5 4t-27 3.5t-27.5 2.5t-32 2t-34.5 0.5q-81 0 -119.5 -45t-38.5 -101q0 -125 131 -145 q285 -47 285 -289q0 -152 -134 -231q48 -31 72.5 -87.5t24.5 -119.5q0 -154 -93.5 -226.5t-250.5 -72.5q-96 0 -219 30v148q5 -1 22.5 -5t23 -5.5t21.5 -4.5l24 -4.5t23 -4t26.5 -3.5t27.5 -2t32.5 -1.5t34.5 -0.5q80 0 119 45.5t39 95.5q0 128 -131 148q-285 47 -285 289z M616 713q0 38 -6 63t-24 48t-53.5 38t-92.5 25q-38 -14 -66 -62.5t-28 -103.5q0 -39 5.5 -63t22 -47.5t51 -38t89.5 -23.5q35 17 68.5 65t33.5 99z" />
<glyph unicode="&#xa8;" horiz-adv-x="727" d="M655 1219h-174v163h174v-163zM246 1219h-174v163h174v-163z" />
<glyph unicode="&#xa9;" horiz-adv-x="1638" d="M965 432v-98q-71 -17 -125 -17q-51 0 -87.5 10.5t-67 37.5t-49 73.5t-28.5 118.5t-10 172q0 122 15.5 200t50.5 118.5t78 54.5t110 14q23 0 62 -5.5t51 -10.5v-99q-60 13 -129 13q-28 0 -44.5 -4.5t-33 -20.5t-25 -47.5t-13.5 -85.5t-5 -135q0 -84 5.5 -140t14 -88 t25.5 -48.5t33.5 -20.5t44.5 -4q69 0 127 12zM1464 717q0 -175 -34 -307t-108 -228.5t-197.5 -146t-295.5 -49.5q-341 0 -498 186t-157 545q0 731 655 731q139 0 246 -33t180 -94t120 -152t68 -202t21 -250zM1307 717q0 95 -8.5 169.5t-29 143.5t-56 118.5t-87.5 86.5 t-126.5 55.5t-170.5 18.5q-143 0 -241.5 -40t-153.5 -119.5t-78.5 -184t-23.5 -248.5q0 -113 14 -201t49 -163t91 -124t142 -76.5t201 -27.5q96 0 170.5 18.5t126.5 55.5t87.5 86.5t56 118.5t29 143.5t8.5 169.5z" />
<glyph unicode="&#xaa;" horiz-adv-x="808" d="M717 668h-47q-30 0 -66 15t-55 52q-58 -73 -197 -73q-229 0 -229 223q0 124 72.5 193t201.5 69h109v78q0 98 -103 98q-105 0 -223 -31v121q98 31 207 31q148 0 205 -57.5t57 -192.5v-377q0 -49 68 -49v-100zM651 0h-514v154h514v-154zM383 784q37 0 63.5 11.5t38.5 30 t16.5 34t4.5 29.5v143h-117q-54 0 -87.5 -33t-33.5 -104q0 -59 27 -85t88 -26z" />
<glyph unicode="&#xab;" horiz-adv-x="952" d="M471 188h-135l-182 424l182 424h135l-129 -424zM799 188h-135l-183 424l183 424h135l-129 -424z" />
<glyph unicode="&#xac;" horiz-adv-x="1177" d="M1034 217h-174v346h-717v154h891v-500z" />
<glyph unicode="&#xad;" horiz-adv-x="1013" d="M840 563h-666v154h666v-154z" />
<glyph unicode="&#xae;" horiz-adv-x="1638" d="M1464 717q0 -175 -34 -307t-108 -228.5t-197.5 -146t-295.5 -49.5q-341 0 -498 186t-157 545q0 731 655 731q139 0 246 -33t180 -94t120 -152t68 -202t21 -250zM1307 717q0 95 -8.5 169.5t-29 143.5t-56 118.5t-87.5 86.5t-126.5 55.5t-170.5 18.5q-143 0 -241.5 -40 t-153.5 -119.5t-78.5 -184t-23.5 -248.5q0 -113 14 -201t49 -163t91 -124t142 -76.5t201 -27.5q96 0 170.5 18.5t126.5 55.5t87.5 86.5t56 118.5t29 143.5t8.5 169.5zM1044 891q0 -180 -112 -227l153 -338h-124l-138 321h-78v-321h-110v788q90 6 184 6q122 0 173.5 -59.5 t51.5 -169.5zM932 883q0 83 -19.5 113t-78.5 30l-89 -4v-277h89q52 0 75 26t23 112z" />
<glyph unicode="&#xaf;" horiz-adv-x="665" d="M594 1239h-522v143h522v-143z" />
<glyph unicode="&#xb0;" horiz-adv-x="743" d="M530 1130q0 80 -36.5 133.5t-122.5 53.5t-123 -53.5t-37 -133.5q0 -51 13 -92.5t50.5 -72.5t96.5 -31q45 0 77.5 17t49.5 47t24.5 62.5t7.5 69.5zM682 1128q0 -144 -76.5 -234.5t-234.5 -90.5q-81 0 -142 25.5t-97 71t-53.5 103t-17.5 125.5t17.5 124t53.5 99.5t97 68 t142 24.5q159 0 235 -86.5t76 -229.5z" />
<glyph unicode="&#xb1;" horiz-adv-x="1126" d="M952 563h-307v-270h-164v270h-307v154h307v323h164v-323h307v-154zM952 0h-778v154h778v-154z" />
<glyph unicode="&#xb2;" horiz-adv-x="839" d="M639 420h-504v145l230 322q70 106 89 157.5t19 141.5q0 64 -27 95.5t-96 31.5q-75 0 -188 -23v131q2 0 35 6.5t75 11.5t78 5q275 0 275 -273q0 -94 -24 -157t-97 -174l-201 -287h336v-133z" />
<glyph unicode="&#xb3;" horiz-adv-x="839" d="M639 719q0 -165 -69 -237t-203 -72q-50 0 -118.5 8.5t-84.5 13.5v131q111 -24 192 -24q60 0 94.5 41.5t34.5 121.5q0 104 -27 149.5t-106 45.5h-116v129h102q36 0 61.5 11.5t38.5 27t20.5 39.5t9 41.5t1.5 40.5q0 76 -27.5 102.5t-89.5 26.5q-68 0 -180 -25v131 q92 23 186 23q130 0 196.5 -58.5t66.5 -214.5q0 -74 -30 -128.5t-89 -75.5q65 -14 101 -77.5t36 -170.5z" />
<glyph unicode="&#xb4;" horiz-adv-x="620" d="M258 1188h-166l213 276h223z" />
<glyph unicode="&#xb5;" horiz-adv-x="1015" d="M338 -348h-174v1372h174v-717q2 -90 33 -132t114 -42q79 0 134.5 54t58.5 114v723h174v-1024h-143l-15 84q-89 -98 -235 -98q-66 0 -121 22v-356z" />
<glyph unicode="&#xb6;" horiz-adv-x="1044" d="M901 0h-164v1434h164v-1434zM625 905v-905h-170v766h-49q-47 0 -86.5 8t-79 31t-66.5 60t-44 100t-17 147q0 89 25.5 156t70 105t97.5 56.5t114 18.5q49 0 100.5 -3.5t77.5 -6.5l27 -4v-138q-82 15 -146 15q-114 0 -162.5 -47t-48.5 -156q0 -103 31 -153t117 -50h209z " />
<glyph unicode="&#xb7;" horiz-adv-x="471" d="M338 532h-205v205h205v-205z" />
<glyph unicode="&#xb8;" horiz-adv-x="618" d="M135 -395v127q60 -13 111 -13q44 0 64 13.5t20 50.5q0 33 -34.5 47t-131.5 14l41 258h133l-23 -157q91 -10 130.5 -49.5t39.5 -118.5q0 -94 -59 -140.5t-162 -46.5q-48 0 -129 15z" />
<glyph unicode="&#xb9;" horiz-adv-x="839" d="M674 420h-481v135h180v735l-197 -80v146l180 78h170v-879h148v-135z" />
<glyph unicode="&#xba;" horiz-adv-x="851" d="M571 1040q0 150 -29 219.5t-116 69.5t-116 -69.5t-29 -219.5q0 -145 28 -204.5t117 -59.5t117 59.5t28 204.5zM719 1069q0 -120 -18.5 -201t-57.5 -127t-90.5 -65t-126.5 -19t-126.5 19t-90.5 65t-57.5 127t-18.5 201q0 195 71 287t222 92t222 -92t71 -287zM705 0h-566 v154h566v-154z" />
<glyph unicode="&#xbb;" horiz-adv-x="952" d="M616 188h-135l129 424l-129 424h135l183 -424zM289 188h-135l129 424l-129 424h135l182 -424z" />
<glyph unicode="&#xbc;" horiz-adv-x="1792" d="M653 420h-481v135h180v735l-196 -80v146l180 78h170v-879h147v-135zM1628 240h-102v-240h-152v240h-301v151l152 623h141l-149 -643h157l15 293h137v-293h102v-131zM1323 1659l-655 -1864h-164l655 1864h164z" />
<glyph unicode="&#xbd;" horiz-adv-x="1792" d="M653 420h-481v135h180v735l-196 -80v146l180 78h170v-879h147v-135zM1667 0h-504v145l230 322q70 106 89 157.5t19 141.5q0 64 -27 95.5t-96 31.5q-75 0 -188 -23v131q2 0 35 6.5t75 11.5t78 5q275 0 275 -272q0 -94 -24 -157.5t-97 -174.5l-201 -287h336v-133z M1333 1659l-655 -1864h-164l649 1864h170z" />
<glyph unicode="&#xbe;" horiz-adv-x="1792" d="M653 719q0 -165 -69 -237t-203 -72q-50 0 -118.5 8.5t-84.5 13.5v131q111 -24 193 -24q60 0 94.5 41.5t34.5 121.5q0 104 -27 149.5t-106 45.5h-117v129h102q36 0 61.5 11.5t38.5 27t20.5 39.5t9 41.5t1.5 40.5q0 76 -27 102.5t-89 26.5q-69 0 -181 -25v131q92 23 187 23 q130 0 196 -58.5t66 -214.5q0 -74 -30 -128.5t-89 -75.5q65 -14 101 -77.5t36 -170.5zM1614 240h-103v-240h-151v240h-301v151l151 623h142l-150 -643h158l14 293h137v-293h103v-131zM1300 1659l-655 -1864h-164l656 1864h163z" />
<glyph unicode="&#xbf;" horiz-adv-x="737" d="M319 1024h205v-205h-205v205zM72 -82q0 118 24.5 173.5t128.5 178.5l111 131v197h174v-248l-123 -145q-101 -119 -121 -162.5t-20 -142.5q0 -95 44 -134.5t126 -39.5t250 32v-149q-146 -33 -230 -33q-72 0 -124.5 8t-100 30t-76.5 59.5t-46 98.5t-17 146z" />
<glyph unicode="&#xc0;" d="M690 1487h-170l-270 235h227zM680 516l-168 782l-166 -782h334zM973 0h-182l-78 362h-400l-80 -362h-182l346 1434h236z" />
<glyph unicode="&#xc1;" d="M500 1487h-170l213 235h227zM680 516l-168 782l-182 -782h350zM973 0h-182l-78 362h-400l-80 -362h-182l346 1434h236z" />
<glyph unicode="&#xc2;" d="M831 1495h-198l-123 131l-123 -131h-197l226 236h188zM680 516l-168 782l-166 -782h334zM973 0h-182l-78 362h-400l-80 -362h-182l346 1434h236z" />
<glyph unicode="&#xc3;" d="M680 516l-168 782l-166 -782h334zM973 0h-182l-78 362h-400l-80 -362h-182l346 1434h236zM250 1503v150q80 67 176 67q50 0 122.5 -40t110.5 -40q50 0 84.5 17t79.5 57v-149q-71 -68 -176 -68q-43 0 -83 20t-77 40t-73 20q-82 0 -164 -74z" />
<glyph unicode="&#xc4;" d="M680 516l-168 782l-166 -782h334zM973 0h-182l-78 362h-400l-80 -362h-182l346 1434h236zM803 1505h-174v164h162zM393 1505h-174v164h174v-164z" />
<glyph unicode="&#xc5;" d="M709 1542q0 -96 -64 -160l328 -1382h-182l-78 362h-400l-80 -362h-182l334 1380q-66 57 -66 162q0 91 52.5 150t140.5 59q91 0 144 -57.5t53 -151.5zM680 516l-168 782l-166 -782h334zM590 1544q0 101 -78 101q-41 0 -58.5 -29t-17.5 -72q0 -40 18 -70t58 -30q46 0 62 27 t16 73z" />
<glyph unicode="&#xc6;" horiz-adv-x="1531" d="M1409 0h-610l-41 362h-408l-117 -362h-182l490 1434h827v-150h-547l56 -469h481v-149h-463l61 -516h453v-150zM655 1284l-256 -768h340z" />
<glyph unicode="&#xc7;" horiz-adv-x="866" d="M369 -395v127q60 -13 110 -13q44 0 64 13.5t20 50.5q0 33 -34.5 47t-131.5 14l25 154q-104 22 -166 97.5t-92.5 231t-30.5 412.5q0 151 11 262.5t36.5 190t59 128.5t85.5 78.5t109 39t137 10.5q89 0 203 -29v-151q-111 26 -239 26q-61 0 -98.5 -19.5t-67 -78.5t-42 -173 t-12.5 -298q0 -190 13 -308.5t43.5 -178.5t67.5 -79.5t98 -19.5q105 0 237 31v-150q-37 -10 -104.5 -21.5t-114.5 -12.5l-6 -41q91 -10 130.5 -49.5t39.5 -118.5q0 -94 -59 -140.5t-162 -46.5q-48 0 -129 15z" />
<glyph unicode="&#xc8;" horiz-adv-x="968" d="M670 1487h-170l-271 235h228zM846 0h-672v1434h672v-150h-494v-469h443v-149h-443v-516h494v-150z" />
<glyph unicode="&#xc9;" horiz-adv-x="968" d="M543 1487h-170l213 235h227zM846 0h-672v1434h672v-150h-494v-469h443v-149h-443v-516h494v-150z" />
<glyph unicode="&#xca;" horiz-adv-x="968" d="M831 1495h-198l-123 131l-123 -131h-197l226 236h188zM846 0h-672v1434h672v-150h-494v-469h443v-149h-443v-516h494v-150z" />
<glyph unicode="&#xcb;" horiz-adv-x="968" d="M846 0h-672v1434h672v-150h-494v-469h443v-149h-443v-516h494v-150zM805 1505h-174v164h174v-164zM395 1505h-174v164h174v-164z" />
<glyph unicode="&#xcc;" horiz-adv-x="649" d="M518 1487h-170l-270 235h227zM557 0h-465v150h144v1134h-144v150h465v-150h-143v-1134h143v-150z" />
<glyph unicode="&#xcd;" horiz-adv-x="649" d="M295 1487h-170l213 235h227zM557 0h-465v150h144v1134h-144v150h465v-150h-143v-1134h143v-150z" />
<glyph unicode="&#xce;" horiz-adv-x="649" d="M645 1495h-199l-122 131l-123 -131h-197l225 236h189zM557 0h-465v150h144v1134h-144v150h465v-150h-143v-1134h143v-150z" />
<glyph unicode="&#xcf;" horiz-adv-x="649" d="M557 0h-465v150h144v1134h-144v150h465v-150h-143v-1134h143v-150zM616 1505h-174v164h174v-164zM207 1505h-174v164h174v-164z" />
<glyph unicode="&#xd0;" horiz-adv-x="1097" d="M965 739q0 -182 -17.5 -313t-49 -216t-84 -135t-115 -69.5t-148.5 -19.5q-71 0 -160 3.5t-143 6.5l-53 4v666h-144v153h144v615q190 14 331 14q93 0 157.5 -15.5t121 -60t90 -123t52 -205t18.5 -305.5zM782 725q0 178 -15 295t-45 176t-65 80.5t-86 21.5l-198 -8v-471 h231v-153h-231v-523q110 -8 196 -8q50 0 87.5 29.5t66.5 96.5t44 183.5t15 280.5z" />
<glyph unicode="&#xd1;" horiz-adv-x="1120" d="M946 0h-293l-313 1282v-1282h-166v1434h291l315 -1282v1282h166v-1434zM270 1503v150q80 67 176 67q50 0 123 -40t111 -40q50 0 84.5 17t79.5 57v-149q-71 -68 -176 -68q-43 0 -83 20t-77.5 40t-73.5 20q-82 0 -164 -74z" />
<glyph unicode="&#xd2;" horiz-adv-x="1122" d="M709 1487h-170l-271 235h228zM807 723q0 228 -24 351t-75.5 173.5t-146.5 50.5t-146.5 -50.5t-75.5 -173.5t-24 -351q0 -223 23.5 -349.5t76.5 -182.5t146 -56t146 56t76.5 182.5t23.5 349.5zM989 733q0 -157 -12 -271.5t-41 -207.5t-78 -150.5t-122.5 -87.5t-174.5 -30 t-174.5 30t-122.5 87.5t-78 150.5t-41 207.5t-12 271.5q0 150 12 260t41 199t78 143.5t122.5 83.5t174.5 29t174.5 -29t122.5 -83.5t78 -143.5t41 -199t12 -260z" />
<glyph unicode="&#xd3;" horiz-adv-x="1122" d="M592 1487h-170l213 235h227zM807 723q0 228 -24 351t-75.5 173.5t-146.5 50.5t-146.5 -50.5t-75.5 -173.5t-24 -351q0 -223 23.5 -349.5t76.5 -182.5t146 -56t146 56t76.5 182.5t23.5 349.5zM989 733q0 -157 -12 -271.5t-41 -207.5t-78 -150.5t-122.5 -87.5t-174.5 -30 t-174.5 30t-122.5 87.5t-78 150.5t-41 207.5t-12 271.5q0 150 12 260t41 199t78 143.5t122.5 83.5t174.5 29t174.5 -29t122.5 -83.5t78 -143.5t41 -199t12 -260z" />
<glyph unicode="&#xd4;" horiz-adv-x="1122" d="M883 1495h-199l-123 131l-123 -131h-196l225 236h188zM807 723q0 228 -24 351t-75.5 173.5t-146.5 50.5t-146.5 -50.5t-75.5 -173.5t-24 -351q0 -223 23.5 -349.5t76.5 -182.5t146 -56t146 56t76.5 182.5t23.5 349.5zM989 733q0 -157 -12 -271.5t-41 -207.5t-78 -150.5 t-122.5 -87.5t-174.5 -30t-174.5 30t-122.5 87.5t-78 150.5t-41 207.5t-12 271.5q0 150 12 260t41 199t78 143.5t122.5 83.5t174.5 29t174.5 -29t122.5 -83.5t78 -143.5t41 -199t12 -260z" />
<glyph unicode="&#xd5;" horiz-adv-x="1122" d="M807 723q0 228 -24 351t-75.5 173.5t-146.5 50.5t-146.5 -50.5t-75.5 -173.5t-24 -351q0 -223 23.5 -349.5t76.5 -182.5t146 -56t146 56t76.5 182.5t23.5 349.5zM989 733q0 -157 -12 -271.5t-41 -207.5t-78 -150.5t-122.5 -87.5t-174.5 -30t-174.5 30t-122.5 87.5 t-78 150.5t-41 207.5t-12 271.5q0 150 12 260t41 199t78 143.5t122.5 83.5t174.5 29t174.5 -29t122.5 -83.5t78 -143.5t41 -199t12 -260zM283 1503v150q80 67 176 67q50 0 122.5 -40t110.5 -40q50 0 84.5 17t79.5 57v-149q-71 -68 -176 -68q-43 0 -83 20t-77.5 40t-73.5 20 q-49 0 -86.5 -19.5t-76.5 -54.5z" />
<glyph unicode="&#xd6;" horiz-adv-x="1122" d="M854 1505h-174v164h174v-164zM444 1505h-174v164h174v-164zM807 723q0 228 -24 351t-75.5 173.5t-146.5 50.5t-146.5 -50.5t-75.5 -173.5t-24 -351q0 -223 23.5 -349.5t76.5 -182.5t146 -56t146 56t76.5 182.5t23.5 349.5zM989 733q0 -157 -12 -271.5t-41 -207.5 t-78 -150.5t-122.5 -87.5t-174.5 -30t-174.5 30t-122.5 87.5t-78 150.5t-41 207.5t-12 271.5q0 150 12 260t41 199t78 143.5t122.5 83.5t174.5 29t174.5 -29t122.5 -83.5t78 -143.5t41 -199t12 -260z" />
<glyph unicode="&#xd7;" horiz-adv-x="1126" d="M803 281l-240 237l-239 -237l-115 114l237 240l-237 239l115 115l239 -237l240 237l115 -115l-238 -239l238 -240z" />
<glyph unicode="&#xd8;" horiz-adv-x="1122" d="M989 733q0 -157 -12 -271.5t-41 -207.5t-78 -150.5t-122.5 -87.5t-174.5 -30q-63 0 -135 14l-55 -186h-156l78 260q-87 82 -123.5 241.5t-36.5 417.5q0 150 12 260t41 199t78 143.5t122.5 83.5t174.5 29q82 0 137 -16l58 188h155l-77 -260q85 -79 120 -231t35 -396z M315 723q0 -302 43 -430l295 989q-43 16 -92 16q-95 0 -146.5 -50.5t-75.5 -173.5t-24 -351zM807 723q0 289 -39 416l-297 -989q41 -15 90 -15q93 0 146 56t76.5 182.5t23.5 349.5z" />
<glyph unicode="&#xd9;" horiz-adv-x="1095" d="M688 1487h-170l-270 235h227zM932 1434v-1055q0 -201 -100 -297t-283 -96q-184 0 -284.5 96t-100.5 297v1055h178v-1094q0 -103 55.5 -154t151.5 -51t150.5 50.5t54.5 154.5v1094h178z" />
<glyph unicode="&#xda;" horiz-adv-x="1095" d="M592 1487h-170l213 235h227zM932 1434v-1055q0 -201 -100 -297t-283 -96q-184 0 -284.5 96t-100.5 297v1055h178v-1094q0 -103 55.5 -154t151.5 -51t150.5 50.5t54.5 154.5v1094h178z" />
<glyph unicode="&#xdb;" horiz-adv-x="1095" d="M872 1495h-198l-123 131l-123 -131h-197l226 236h188zM932 1434v-1055q0 -201 -100 -297t-283 -96q-184 0 -284.5 96t-100.5 297v1055h178v-1094q0 -103 55.5 -154t151.5 -51t150.5 50.5t54.5 154.5v1094h178z" />
<glyph unicode="&#xdc;" horiz-adv-x="1095" d="M844 1505h-174v164h174v-164zM434 1505h-174v164h174v-164zM932 1434v-1055q0 -201 -100 -297t-283 -96q-184 0 -284.5 96t-100.5 297v1055h178v-1094q0 -103 55.5 -154t151.5 -51t150.5 50.5t54.5 154.5v1094h178z" />
<glyph unicode="&#xdd;" horiz-adv-x="1005" d="M551 1487h-170l213 235h227zM965 1434l-373 -768v-666h-184v666l-367 768h197l270 -596l270 596h187z" />
<glyph unicode="&#xde;" horiz-adv-x="1044" d="M922 741q0 -237 -91.5 -344.5t-306.5 -107.5h-172v-289h-178v1434h178v-267q15 1 74 5t94 4q91 0 161 -21.5t115 -59t73.5 -93t40.5 -119t12 -142.5zM739 727q0 158 -44 229.5t-150 71.5q-50 0 -98.5 -3t-71.5 -6l-23 -3v-578h193q93 0 143.5 65.5t50.5 223.5z" />
<glyph unicode="&#xdf;" horiz-adv-x="1062" d="M940 319q0 -178 -88 -255.5t-258 -77.5q-23 0 -72 5.5t-76 12.5v152q86 -23 154 -23q80 0 119 50t39 126q0 83 -33 129t-121 86q-89 40 -127.5 96.5t-38.5 151.5q0 103 64 164t178 80q18 58 18 135q0 62 -47.5 105.5t-140.5 43.5q-80 0 -126 -48.5t-46 -145.5v-1106h-174 v1092q0 169 93.5 262.5t256.5 93.5q164 0 250 -84.5t86 -222.5q0 -24 -1.5 -47.5t-2.5 -38.5t-5 -41t-6 -36t-9 -44t-9 -47q-118 0 -166.5 -31t-48.5 -94q0 -67 70 -94q57 -23 100 -50t83.5 -67.5t62.5 -99t22 -132.5z" />
<glyph unicode="&#xe0;" horiz-adv-x="985" d="M893 0h-62q-25 0 -51 6.5t-57 30.5t-45 63q-79 -114 -270 -114q-49 0 -90 7t-82.5 27t-69.5 52.5t-46 87.5t-18 129q0 164 96.5 253t268.5 89h162v110q0 67 -40 108.5t-114 41.5q-146 0 -297 -43v149q135 41 277 41q195 0 271.5 -79t76.5 -259v-491q0 -66 90 -66v-143z M449 133q49 0 87 16t56.5 40.5t27.5 46.5t9 40v216h-172q-73 0 -124.5 -48t-51.5 -143q0 -92 41.5 -130t126.5 -38zM657 1188h-165l-271 276h223z" />
<glyph unicode="&#xe1;" horiz-adv-x="985" d="M893 0h-62q-25 0 -51 6.5t-57 30.5t-45 63q-79 -114 -270 -114q-49 0 -90 7t-82.5 27t-69.5 52.5t-46 87.5t-18 129q0 164 96.5 253t268.5 89h162v110q0 67 -40 108.5t-114 41.5q-146 0 -297 -43v149q135 41 277 41q195 0 271.5 -79t76.5 -259v-491q0 -66 90 -66v-143z M449 133q49 0 87 16t56.5 40.5t27.5 46.5t9 40v216h-172q-73 0 -124.5 -48t-51.5 -143q0 -92 41.5 -130t126.5 -38zM539 1188h-166l213 276h223z" />
<glyph unicode="&#xe2;" horiz-adv-x="985" d="M893 0h-62q-25 0 -51 6.5t-57 30.5t-45 63q-79 -114 -270 -114q-49 0 -90 7t-82.5 27t-69.5 52.5t-46 87.5t-18 129q0 164 96.5 253t268.5 89h162v110q0 67 -40 108.5t-114 41.5q-146 0 -297 -43v149q135 41 277 41q195 0 271.5 -79t76.5 -259v-491q0 -66 90 -66v-143z M449 133q49 0 87 16t56.5 40.5t27.5 46.5t9 40v216h-172q-73 0 -124.5 -48t-51.5 -143q0 -92 41.5 -130t126.5 -38zM823 1188h-198l-123 172l-123 -172h-197l230 276h180z" />
<glyph unicode="&#xe3;" horiz-adv-x="985" d="M893 0h-62q-25 0 -51 6.5t-57 30.5t-45 63q-79 -114 -270 -114q-49 0 -90 7t-82.5 27t-69.5 52.5t-46 87.5t-18 129q0 164 96.5 253t268.5 89h162v110q0 67 -40 108.5t-114 41.5q-146 0 -297 -43v149q135 41 277 41q195 0 271.5 -79t76.5 -259v-491q0 -66 90 -66v-143z M449 133q49 0 87 16t56.5 40.5t27.5 46.5t9 40v216h-172q-73 0 -124.5 -48t-51.5 -143q0 -92 41.5 -130t126.5 -38zM207 1217v149q81 68 176 68q50 0 122.5 -40t110.5 -40q50 0 85 17t79 56v-149q-71 -68 -176 -68q-43 0 -83 20t-77 40t-73 20q-84 0 -164 -73z" />
<glyph unicode="&#xe4;" horiz-adv-x="985" d="M893 0h-62q-25 0 -51 6.5t-57 30.5t-45 63q-79 -114 -270 -114q-49 0 -90 7t-82.5 27t-69.5 52.5t-46 87.5t-18 129q0 164 96.5 253t268.5 89h162v110q0 67 -40 108.5t-114 41.5q-146 0 -297 -43v149q135 41 277 41q195 0 271.5 -79t76.5 -259v-491q0 -66 90 -66v-143z M449 133q49 0 87 16t56.5 40.5t27.5 46.5t9 40v216h-172q-73 0 -124.5 -48t-51.5 -143q0 -92 41.5 -130t126.5 -38zM782 1219h-174v163h174v-163zM373 1219h-174v163h174v-163z" />
<glyph unicode="&#xe5;" horiz-adv-x="985" d="M547 1323q0 100 -78 100q-41 0 -58.5 -28.5t-17.5 -71.5q0 -40 18 -70t58 -30q46 0 62 27t16 73zM666 1321q0 -91 -54.5 -150t-142.5 -59q-87 0 -140 59.5t-53 149.5q0 91 52.5 150t140.5 59q91 0 144 -57.5t53 -151.5zM893 0h-62q-25 0 -51 6.5t-57 30.5t-45 63 q-79 -114 -270 -114q-49 0 -90 7t-82.5 27t-69.5 52.5t-46 87.5t-18 129q0 164 96.5 253t268.5 89h162v110q0 67 -40 108.5t-114 41.5q-146 0 -297 -43v149q135 41 277 41q195 0 271.5 -79t76.5 -259v-491q0 -66 90 -66v-143zM449 133q49 0 87 16t56.5 40.5t27.5 46.5t9 40 v216h-172q-73 0 -124.5 -48t-51.5 -143q0 -92 41.5 -130t126.5 -38z" />
<glyph unicode="&#xe6;" horiz-adv-x="1454" d="M1331 471h-534q1 -105 14 -174t38.5 -104t55 -47.5t72.5 -12.5q27 0 56.5 2t51 4.5t50.5 7.5t43 8t41 8.5t32 6.5v-150q-125 -34 -254 -34q-114 0 -187.5 32t-115.5 115q-78 -147 -286 -147q-49 0 -90 7t-82.5 27t-69.5 52.5t-46 87.5t-18 129q0 157 96 239t269 82h162 v131q0 65 -40.5 107.5t-113.5 42.5q-132 0 -297 -47v149q149 45 277 45q213 0 284 -108q91 108 262 108q330 0 330 -434v-133zM449 133q47 0 83 14.5t55.5 37.5t29.5 44.5t12 40.5v201h-172q-75 0 -125.5 -40.5t-50.5 -129.5q0 -92 41.5 -130t126.5 -38zM997 893 q-98 0 -142.5 -62t-53.5 -221h360v35q0 122 -38.5 185t-125.5 63z" />
<glyph unicode="&#xe7;" horiz-adv-x="827" d="M336 -395v127q60 -13 110 -13q44 0 64 13.5t20 50.5q0 33 -34 47t-131 14l22 150q-66 11 -111 40.5t-78.5 90t-49 161t-15.5 246.5q0 272 84.5 389t271.5 117q100 0 226 -30v-152q-138 29 -238 29q-61 0 -96.5 -35t-52.5 -120.5t-17 -237.5q0 -90 8 -154.5t21 -102.5 t35 -60t45.5 -29t56.5 -7q32 0 60.5 2t56 6t42.5 6.5t44 9t35 7.5v-152q-92 -26 -193 -32l-6 -41q91 -10 130.5 -49.5t39.5 -118.5q0 -94 -59 -140.5t-162 -46.5q-48 0 -129 15z" />
<glyph unicode="&#xe8;" horiz-adv-x="958" d="M836 451h-529q2 -99 14.5 -163.5t37 -97.5t52.5 -45t70 -12q131 0 275 33v-148q-49 -13 -123.5 -22.5t-130.5 -9.5q-77 0 -129.5 10.5t-101.5 43t-77 90t-44.5 152.5t-16.5 230q0 278 92 402t281 124q330 0 330 -434v-153zM502 893q-100 0 -143 -64.5t-50 -238.5h357v55 q0 122 -38.5 185t-125.5 63zM653 1188h-166l-270 276h223z" />
<glyph unicode="&#xe9;" horiz-adv-x="958" d="M836 451h-529q2 -99 14.5 -163.5t37 -97.5t52.5 -45t70 -12q131 0 275 33v-148q-49 -13 -123.5 -22.5t-130.5 -9.5q-77 0 -129.5 10.5t-101.5 43t-77 90t-44.5 152.5t-16.5 230q0 278 92 402t281 124q330 0 330 -434v-153zM502 893q-100 0 -143 -64.5t-50 -238.5h357v55 q0 122 -38.5 185t-125.5 63zM539 1188h-166l213 276h223z" />
<glyph unicode="&#xea;" horiz-adv-x="958" d="M836 451h-529q2 -99 14.5 -163.5t37 -97.5t52.5 -45t70 -12q131 0 275 33v-148q-49 -13 -123.5 -22.5t-130.5 -9.5q-77 0 -129.5 10.5t-101.5 43t-77 90t-44.5 152.5t-16.5 230q0 278 92 402t281 124q330 0 330 -434v-153zM502 893q-100 0 -143 -64.5t-50 -238.5h357v55 q0 122 -38.5 185t-125.5 63zM827 1188h-198l-123 172l-123 -172h-197l230 276h180z" />
<glyph unicode="&#xeb;" horiz-adv-x="958" d="M836 451h-529q2 -99 14.5 -163.5t37 -97.5t52.5 -45t70 -12q131 0 275 33v-148q-49 -13 -123.5 -22.5t-130.5 -9.5q-77 0 -129.5 10.5t-101.5 43t-77 90t-44.5 152.5t-16.5 230q0 278 92 402t281 124q330 0 330 -434v-153zM502 893q-100 0 -143 -64.5t-50 -238.5h357v55 q0 122 -38.5 185t-125.5 63zM803 1219h-174v163h174v-163zM393 1219h-174v163h174v-163z" />
<glyph unicode="&#xec;" horiz-adv-x="501" d="M338 0h-174v1024h174v-1024zM387 1188h-166l-270 276h213z" />
<glyph unicode="&#xed;" horiz-adv-x="501" d="M338 0h-174v1024h174v-1024zM279 1188h-166l213 276h223z" />
<glyph unicode="&#xee;" horiz-adv-x="501" d="M338 0h-174v1024h174v-1024zM571 1188h-198l-123 172l-123 -172h-197l230 276h180z" />
<glyph unicode="&#xef;" horiz-adv-x="501" d="M338 0h-174v1024h174v-1024zM543 1219h-174v163h174v-163zM133 1219h-174v163h174v-163z" />
<glyph unicode="&#xf0;" horiz-adv-x="1030" d="M557 1257l-68 -118h-167l90 155q-24 2 -179 11v143q168 -7 256 -21l64 109h168l-86 -147q123 -53 182.5 -189t59.5 -403q0 -172 -7.5 -295t-26 -215.5t-45.5 -149t-71 -91t-96 -47.5t-127 -13q-361 0 -361 465q0 97 7 166.5t27.5 136t56.5 107t96.5 65t144.5 24.5 q121 0 223 -63q-7 166 -40 250t-101 120zM489 803q-43 0 -74 -17.5t-50 -46.5t-30 -78t-14.5 -102t-3.5 -127q0 -154 43 -226.5t156 -72.5q40 0 66.5 12t51 48.5t38 104t21.5 177.5t9 270q-1 1 -11 6t-15.5 7.5t-18 8t-22 8.5t-24 8t-28 8t-29 6t-32 4.5t-33.5 1.5z" />
<glyph unicode="&#xf1;" horiz-adv-x="1036" d="M338 0h-174v1024h143l15 -92q100 106 251 106q171 0 240.5 -85t69.5 -277v-676h-174v696q0 104 -34 149.5t-132 45.5q-83 0 -144 -57t-61 -117v-717zM274 1217v149q81 68 177 68q50 0 122.5 -40t110.5 -40q50 0 85 17t79 56v-149q-71 -68 -176 -68q-43 0 -83 20t-77.5 40 t-73.5 20q-84 0 -164 -73z" />
<glyph unicode="&#xf2;" horiz-adv-x="1044" d="M911 532q0 -159 -24.5 -266.5t-75.5 -168.5t-120 -86t-169 -25t-169 25t-120 86t-75.5 168.5t-24.5 266.5q0 261 94.5 383.5t294.5 122.5t294.5 -122.5t94.5 -383.5zM733 502q0 221 -45 307t-166 86t-166 -86t-45 -307q0 -201 48 -287t163 -86t163 86t48 287zM684 1188 h-166l-270 276h223z" />
<glyph unicode="&#xf3;" horiz-adv-x="1044" d="M911 532q0 -159 -24.5 -266.5t-75.5 -168.5t-120 -86t-169 -25t-169 25t-120 86t-75.5 168.5t-24.5 266.5q0 261 94.5 383.5t294.5 122.5t294.5 -122.5t94.5 -383.5zM733 502q0 221 -45 307t-166 86t-166 -86t-45 -307q0 -201 48 -287t163 -86t163 86t48 287zM549 1188 h-166l213 276h223z" />
<glyph unicode="&#xf4;" horiz-adv-x="1044" d="M911 532q0 -159 -24.5 -266.5t-75.5 -168.5t-120 -86t-169 -25t-169 25t-120 86t-75.5 168.5t-24.5 266.5q0 261 94.5 383.5t294.5 122.5t294.5 -122.5t94.5 -383.5zM733 502q0 221 -45 307t-166 86t-166 -86t-45 -307q0 -201 48 -287t163 -86t163 86t48 287zM844 1188 h-199l-123 172l-123 -172h-196l229 276h180z" />
<glyph unicode="&#xf5;" horiz-adv-x="1044" d="M911 532q0 -159 -24.5 -266.5t-75.5 -168.5t-120 -86t-169 -25t-169 25t-120 86t-75.5 168.5t-24.5 266.5q0 261 94.5 383.5t294.5 122.5t294.5 -122.5t94.5 -383.5zM733 502q0 221 -45 307t-166 86t-166 -86t-45 -307q0 -201 48 -287t163 -86t163 86t48 287zM246 1217 v149q81 68 176 68q50 0 122.5 -40t110.5 -40q50 0 85 17t79 56v-149q-71 -68 -176 -68q-43 0 -83 20t-77 40t-73 20q-84 0 -164 -73z" />
<glyph unicode="&#xf6;" horiz-adv-x="1044" d="M911 532q0 -159 -24.5 -266.5t-75.5 -168.5t-120 -86t-169 -25t-169 25t-120 86t-75.5 168.5t-24.5 266.5q0 261 94.5 383.5t294.5 122.5t294.5 -122.5t94.5 -383.5zM733 502q0 221 -45 307t-166 86t-166 -86t-45 -307q0 -201 48 -287t163 -86t163 86t48 287zM815 1219 h-174v163h174v-163zM406 1219h-175v163h175v-163z" />
<glyph unicode="&#xf7;" horiz-adv-x="1126" d="M952 563h-778v154h778v-154zM666 133h-205v205h205v-205zM666 942h-205v205h205v-205z" />
<glyph unicode="&#xf8;" horiz-adv-x="1044" d="M911 532q0 -159 -24.5 -266.5t-75.5 -168.5t-120 -86t-169 -25q-48 0 -92 6l-57 -174h-160l76 227q-78 55 -117 172t-39 315q0 261 94.5 383.5t294.5 122.5q55 0 94 -8l60 176h158l-78 -233q155 -113 155 -441zM311 502q0 -186 39 -271l219 660q-28 4 -47 4 q-121 0 -166 -86t-45 -307zM733 502q0 205 -37 291l-219 -662q14 -2 45 -2q115 0 163 86t48 287z" />
<glyph unicode="&#xf9;" horiz-adv-x="1005" d="M842 0h-144l-14 84q-89 -98 -235 -98q-165 0 -230 87.5t-65 282.5v668h174v-688q0 -106 29.5 -154.5t117.5 -48.5q79 0 134.5 54t58.5 114v723h174v-1024zM659 1188h-165l-271 276h223z" />
<glyph unicode="&#xfa;" horiz-adv-x="1005" d="M842 0h-144l-14 84q-89 -98 -235 -98q-165 0 -230 87.5t-65 282.5v668h174v-688q0 -106 29.5 -154.5t117.5 -48.5q79 0 134.5 54t58.5 114v723h174v-1024zM543 1188h-166l213 276h223z" />
<glyph unicode="&#xfb;" horiz-adv-x="1005" d="M842 0h-144l-14 84q-89 -98 -235 -98q-165 0 -230 87.5t-65 282.5v668h174v-688q0 -106 29.5 -154.5t117.5 -48.5q79 0 134.5 54t58.5 114v723h174v-1024zM823 1188h-198l-123 172l-123 -172h-197l230 276h180z" />
<glyph unicode="&#xfc;" horiz-adv-x="1005" d="M842 0h-144l-14 84q-89 -98 -235 -98q-165 0 -230 87.5t-65 282.5v668h174v-688q0 -106 29.5 -154.5t117.5 -48.5q79 0 134.5 54t58.5 114v723h174v-1024zM793 1219h-175v163h175v-163zM383 1219h-174v163h174v-163z" />
<glyph unicode="&#xfd;" horiz-adv-x="948" d="M877 1024l-297 -1114q-18 -69 -35 -111t-45 -81.5t-71 -57.5t-103 -18q-42 0 -117 12v149q58 -8 106 -8q57 0 82 92l33 113h-41l-317 1024h188l238 -846l200 846h179zM561 1188h-166l213 276h223z" />
<glyph unicode="&#xfe;" horiz-adv-x="1021" d="M338 -348h-174v1782h174v-486q96 90 227 90q175 0 249.5 -112t74.5 -348q0 -228 -42 -355t-135 -182t-259 -55q-53 0 -115 8v-342zM532 891q-81 0 -137.5 -56.5t-56.5 -117.5v-576q62 -8 135 -8q72 0 119 25.5t73 81.5t36 130.5t10 186.5q0 192 -39.5 263t-139.5 71z" />
<glyph unicode="&#xff;" horiz-adv-x="948" d="M877 1024l-297 -1114q-18 -69 -35 -111t-45 -81.5t-71 -57.5t-103 -18q-42 0 -117 12v149q58 -8 106 -8q57 0 82 92l33 113h-41l-317 1024h188l238 -846l200 846h179zM768 1219h-174v163h174v-163zM358 1219h-174v163h174v-163z" />
<glyph unicode="&#x100;" d="M776 1571h-522v143h522v-143zM680 516l-168 782l-166 -782h334zM973 0h-182l-78 362h-400l-80 -362h-182l346 1434h236z" />
<glyph unicode="&#x101;" horiz-adv-x="985" d="M716 1161h-522v144h522v-144zM893 0h-62q-25 0 -51 6.5t-57 30.5t-45 63q-79 -114 -270 -114q-49 0 -90 7t-82.5 27t-69.5 52.5t-46 87.5t-18 129q0 164 96.5 253t268.5 89h162v110q0 67 -40 108.5t-114 41.5q-146 0 -297 -43v149q135 41 277 41q195 0 271.5 -79 t76.5 -259v-491q0 -66 90 -66v-143zM449 133q49 0 87 16t56.5 40.5t27.5 46.5t9 40v216h-172q-73 0 -124.5 -48t-51.5 -143q0 -92 41.5 -130t126.5 -38z" />
<glyph unicode="&#x102;" d="M640 1837h166q-42 -266 -291 -266t-291 266h168q8 -141 123 -141q110 0 125 141zM680 516l-168 782l-166 -782h334zM973 0h-182l-78 362h-400l-80 -362h-182l346 1434h236z" />
<glyph unicode="&#x103;" horiz-adv-x="985" d="M580 1427h165q-42 -266 -290 -266q-249 0 -291 266h168q8 -141 123 -141q110 0 125 141zM893 0h-62q-25 0 -51 6.5t-57 30.5t-45 63q-79 -114 -270 -114q-49 0 -90 7t-82.5 27t-69.5 52.5t-46 87.5t-18 129q0 164 96.5 253t268.5 89h162v110q0 67 -40 108.5t-114 41.5 q-146 0 -297 -43v149q135 41 277 41q195 0 271.5 -79t76.5 -259v-491q0 -66 90 -66v-143zM449 133q49 0 87 16t56.5 40.5t27.5 46.5t9 40v216h-172q-73 0 -124.5 -48t-51.5 -143q0 -92 41.5 -130t126.5 -38z" />
<glyph unicode="&#x104;" d="M926 -317v-134q-78 -20 -154 -20q-131 0 -182 49t-51 176q0 70 33.5 144t76.5 122h137l-73 342h-400l-80 -362h-182l346 1434h236l340 -1434h-182l-4 15q-38 -60 -62.5 -135t-24.5 -124q0 -52 21 -70t70 -18q43 0 135 15zM680 516l-168 782l-166 -782h334z" />
<glyph unicode="&#x105;" horiz-adv-x="985" d="M977 -289v-133q-78 -20 -154 -20q-131 0 -182 49t-51 176q0 70 33.5 144t76.5 122h9q-19 19 -31 51q-79 -114 -270 -114q-49 0 -90 7t-82.5 27t-69.5 52.5t-46 87.5t-18 129q0 164 96.5 253t268.5 89h162v110q0 67 -40 108.5t-114 41.5q-146 0 -297 -43v149 q135 41 277 41q195 0 271.5 -79t76.5 -259v-491q0 -66 90 -66v-143h-62q-11 0 -17 1q-28 -55 -45 -115t-17 -101q0 -52 21 -70t69 -18q49 0 135 14zM449 133q49 0 87 16t56.5 40.5t27.5 46.5t9 40v216h-172q-73 0 -124.5 -48t-51.5 -143q0 -92 41.5 -130t126.5 -38z" />
<glyph unicode="&#x106;" horiz-adv-x="866" d="M654 1571h-166l213 276h224zM774 170v-150q-128 -34 -227 -34q-92 0 -156 20t-115.5 69t-81.5 135.5t-45.5 216t-15.5 312.5q0 151 11 262.5t36.5 190t59 128.5t85.5 78.5t109 39t137 10.5q89 0 203 -29v-151q-111 26 -239 26q-61 0 -98.5 -19.5t-67 -78.5t-42 -173 t-12.5 -298q0 -190 13 -308.5t43.5 -178.5t67.5 -79.5t98 -19.5q105 0 237 31z" />
<glyph unicode="&#x107;" horiz-adv-x="827" d="M572 1161h-165l213 277h223zM715 170v-152q-117 -32 -223 -32q-76 0 -128.5 11.5t-99 45.5t-73.5 94t-42.5 158t-15.5 237q0 272 84.5 389t271.5 117q100 0 226 -30v-152q-138 29 -238 29q-61 0 -96.5 -35t-52.5 -120.5t-17 -237.5q0 -90 8 -154.5t21 -102.5t35 -60 t45.5 -29t56.5 -7q32 0 60.5 2t56 6t42.5 6.5t44 9t35 7.5z" />
<glyph unicode="&#x108;" horiz-adv-x="866" d="M892 1571h-199l-123 172l-123 -172h-196l229 276h180zM774 170v-150q-128 -34 -227 -34q-92 0 -156 20t-115.5 69t-81.5 135.5t-45.5 216t-15.5 312.5q0 151 11 262.5t36.5 190t59 128.5t85.5 78.5t109 39t137 10.5q89 0 203 -29v-151q-111 26 -239 26q-61 0 -98.5 -19.5 t-67 -78.5t-42 -173t-12.5 -298q0 -190 13 -308.5t43.5 -178.5t67.5 -79.5t98 -19.5q105 0 237 31z" />
<glyph unicode="&#x109;" horiz-adv-x="827" d="M810 1161h-199l-123 172l-122 -172h-197l229 277h181zM715 170v-152q-117 -32 -223 -32q-76 0 -128.5 11.5t-99 45.5t-73.5 94t-42.5 158t-15.5 237q0 272 84.5 389t271.5 117q100 0 226 -30v-152q-138 29 -238 29q-61 0 -96.5 -35t-52.5 -120.5t-17 -237.5 q0 -90 8 -154.5t21 -102.5t35 -60t45.5 -29t56.5 -7q32 0 60.5 2t56 6t42.5 6.5t44 9t35 7.5z" />
<glyph unicode="&#x10a;" horiz-adv-x="866" d="M658 1571h-174v174h174v-174zM774 170v-150q-128 -34 -227 -34q-92 0 -156 20t-115.5 69t-81.5 135.5t-45.5 216t-15.5 312.5q0 151 11 262.5t36.5 190t59 128.5t85.5 78.5t109 39t137 10.5q89 0 203 -29v-151q-111 26 -239 26q-61 0 -98.5 -19.5t-67 -78.5t-42 -173 t-12.5 -298q0 -190 13 -308.5t43.5 -178.5t67.5 -79.5t98 -19.5q105 0 237 31z" />
<glyph unicode="&#x10b;" horiz-adv-x="827" d="M577 1161h-175v174h175v-174zM715 170v-152q-117 -32 -223 -32q-76 0 -128.5 11.5t-99 45.5t-73.5 94t-42.5 158t-15.5 237q0 272 84.5 389t271.5 117q100 0 226 -30v-152q-138 29 -238 29q-61 0 -96.5 -35t-52.5 -120.5t-17 -237.5q0 -90 8 -154.5t21 -102.5t35 -60 t45.5 -29t56.5 -7q32 0 60.5 2t56 6t42.5 6.5t44 9t35 7.5z" />
<glyph unicode="&#x10c;" horiz-adv-x="866" d="M251 1847h199l122 -172l123 172h197l-229 -276h-181zM774 170v-150q-128 -34 -227 -34q-92 0 -156 20t-115.5 69t-81.5 135.5t-45.5 216t-15.5 312.5q0 151 11 262.5t36.5 190t59 128.5t85.5 78.5t109 39t137 10.5q89 0 203 -29v-151q-111 26 -239 26q-61 0 -98.5 -19.5 t-67 -78.5t-42 -173t-12.5 -298q0 -190 13 -308.5t43.5 -178.5t67.5 -79.5t98 -19.5q105 0 237 31z" />
<glyph unicode="&#x10d;" horiz-adv-x="827" d="M169 1438h199l122 -172l123 172h197l-229 -277h-181zM715 170v-152q-117 -32 -223 -32q-76 0 -128.5 11.5t-99 45.5t-73.5 94t-42.5 158t-15.5 237q0 272 84.5 389t271.5 117q100 0 226 -30v-152q-138 29 -238 29q-61 0 -96.5 -35t-52.5 -120.5t-17 -237.5 q0 -90 8 -154.5t21 -102.5t35 -60t45.5 -29t56.5 -7q32 0 60.5 2t56 6t42.5 6.5t44 9t35 7.5z" />
<glyph unicode="&#x10e;" horiz-adv-x="1077" d="M239 1847h198l123 -172l123 172h197l-230 -276h-180zM762 725q0 178 -15 295t-45 176t-65 80.5t-86 21.5l-199 -8v-1147q111 -8 197 -8q50 0 87.5 29.5t66.5 96.5t44 183.5t15 280.5zM944 739q0 -182 -17.5 -313t-49 -216t-84 -135t-115 -69.5t-148.5 -19.5 q-71 0 -160 3.5t-142 6.5l-54 4v1434q191 14 332 14q93 0 157.5 -15.5t121 -60t89.5 -123t51.5 -205t18.5 -305.5z" />
<glyph unicode="&#x10f;" horiz-adv-x="1032" d="M1339 1229l-147 -287h-139l82 287v205h204v-205zM868 0h-143l-14 86q-97 -100 -244 -100q-188 0 -261 115t-73 366q0 302 106 436.5t341 134.5q52 0 114 -8v404h174v-1434zM500 133q88 0 141 55.5t53 118.5v576q-62 8 -135 8q-58 0 -100.5 -19.5t-71 -55t-45.5 -91.5 t-24 -123t-7 -156q0 -179 43.5 -246t145.5 -67z" />
<glyph unicode="&#x110;" horiz-adv-x="1097" d="M965 739q0 -182 -17.5 -313t-49 -216t-84 -135t-115 -69.5t-148.5 -19.5q-71 0 -160 3.5t-143 6.5l-53 4v666h-144v153h144v615q190 14 331 14q93 0 157.5 -15.5t121 -60t90 -123t52 -205t18.5 -305.5zM782 725q0 178 -15 295t-45 176t-65 80.5t-86 21.5l-198 -8v-471 h231v-153h-231v-523q110 -8 196 -8q50 0 87.5 29.5t66.5 96.5t44 183.5t15 280.5z" />
<glyph unicode="&#x111;" horiz-adv-x="1114" d="M500 133q88 0 141 55.5t53 118.5v576q-62 8 -135 8q-58 0 -100.5 -19.5t-71 -55t-45.5 -91.5t-24 -123t-7 -156q0 -179 43.5 -246t145.5 -67zM868 0h-143l-14 86q-97 -100 -244 -100q-188 0 -261 115t-73 366q0 302 106 436.5t341 134.5q52 0 114 -8v139h-327v154h327 v111h174v-111h164v-154h-164v-1169z" />
<glyph unicode="&#x112;" horiz-adv-x="968" d="M771 1571h-522v143h522v-143zM846 0h-672v1434h672v-150h-494v-469h443v-149h-443v-516h494v-150z" />
<glyph unicode="&#x113;" horiz-adv-x="958" d="M767 1161h-522v144h522v-144zM836 451h-529q2 -99 14.5 -163.5t37 -97.5t52.5 -45t70 -12q131 0 275 33v-148q-49 -13 -123.5 -22.5t-130.5 -9.5q-77 0 -129.5 10.5t-101.5 43t-77 90t-44.5 152.5t-16.5 230q0 278 92 402t281 124q330 0 330 -434v-153zM502 893 q-100 0 -143 -64.5t-50 -238.5h357v55q0 122 -38.5 185t-125.5 63z" />
<glyph unicode="&#x114;" horiz-adv-x="968" d="M635 1837h166q-42 -266 -291 -266t-291 266h168q8 -141 123 -141q110 0 125 141zM846 0h-672v1434h672v-150h-494v-469h443v-149h-443v-516h494v-150z" />
<glyph unicode="&#x115;" horiz-adv-x="958" d="M631 1427h166q-42 -266 -291 -266t-291 266h168q8 -141 123 -141q110 0 125 141zM836 451h-529q2 -99 14.5 -163.5t37 -97.5t52.5 -45t70 -12q131 0 275 33v-148q-49 -13 -123.5 -22.5t-130.5 -9.5q-77 0 -129.5 10.5t-101.5 43t-77 90t-44.5 152.5t-16.5 230 q0 278 92 402t281 124q330 0 330 -434v-153zM502 893q-100 0 -143 -64.5t-50 -238.5h357v55q0 122 -38.5 185t-125.5 63z" />
<glyph unicode="&#x116;" horiz-adv-x="968" d="M597 1571h-174v174h174v-174zM846 0h-672v1434h672v-150h-494v-469h443v-149h-443v-516h494v-150z" />
<glyph unicode="&#x117;" horiz-adv-x="958" d="M593 1161h-174v174h174v-174zM836 451h-529q2 -99 14.5 -163.5t37 -97.5t52.5 -45t70 -12q131 0 275 33v-148q-49 -13 -123.5 -22.5t-130.5 -9.5q-77 0 -129.5 10.5t-101.5 43t-77 90t-44.5 152.5t-16.5 230q0 278 92 402t281 124q330 0 330 -434v-153zM502 893 q-100 0 -143 -64.5t-50 -238.5h357v55q0 122 -38.5 185t-125.5 63z" />
<glyph unicode="&#x118;" horiz-adv-x="968" d="M786 -322v-133q-78 -20 -153 -20q-131 0 -182.5 49t-51.5 176q0 64 28.5 132t68.5 118h-322v1434h672v-150h-494v-469h443v-149h-443v-516h494v-150h-205q-35 -58 -57.5 -129.5t-22.5 -118.5q0 -52 21 -70t69 -18q49 0 135 14z" />
<glyph unicode="&#x119;" horiz-adv-x="958" d="M708 -336v-133q-78 -20 -154 -20q-131 0 -182 49t-51 176q0 65 29 133.5t70 119.5q-74 8 -124 34t-88.5 83.5t-56.5 157.5t-18 248q0 278 92 402t281 124q330 0 330 -434v-153h-529q2 -99 14.5 -163.5t37 -97.5t52.5 -45t70 -12q131 0 275 33v-148q-74 -21 -192 -30 q-36 -59 -59 -130.5t-23 -119.5q0 -52 21 -70t69 -18q50 0 136 14zM502 893q-100 0 -143 -64.5t-50 -238.5h357v55q0 122 -38.5 185t-125.5 63z" />
<glyph unicode="&#x11a;" horiz-adv-x="968" d="M189 1847h199l123 -172l123 172h196l-229 -276h-180zM846 0h-672v1434h672v-150h-494v-469h443v-149h-443v-516h494v-150z" />
<glyph unicode="&#x11b;" horiz-adv-x="958" d="M185 1438h199l123 -172l123 172h196l-229 -277h-180zM836 451h-529q2 -99 14.5 -163.5t37 -97.5t52.5 -45t70 -12q131 0 275 33v-148q-49 -13 -123.5 -22.5t-130.5 -9.5q-77 0 -129.5 10.5t-101.5 43t-77 90t-44.5 152.5t-16.5 230q0 278 92 402t281 124q330 0 330 -434 v-153zM502 893q-100 0 -143 -64.5t-50 -238.5h357v55q0 122 -38.5 185t-125.5 63z" />
<glyph unicode="&#x11c;" d="M929 1571h-199l-123 172l-123 -172h-196l229 276h180zM881 754v-734q-185 -34 -322 -34q-98 0 -165 20t-119.5 69t-82 136t-44.5 215t-15 313q0 151 12 262.5t39.5 190t64 128.5t93 78.5t118.5 39t148 10.5q107 0 230 -29v-147q-140 26 -267 26q-57 0 -94.5 -12 t-71 -46.5t-51.5 -98.5t-28.5 -166t-10.5 -250q0 -129 6 -223t19 -159.5t30.5 -106t46 -63t58.5 -30.5t74 -8q63 0 162 15v454h-183v150h353z" />
<glyph unicode="&#x11d;" horiz-adv-x="1067" d="M869 1161h-198l-123 172l-123 -172h-197l230 277h180zM911 666q0 -174 -101.5 -259t-311.5 -85q-78 0 -136 12q-20 -45 -20 -88q0 -28 10 -58q196 17 256 17q80 0 137.5 -12.5t105.5 -45t72.5 -94t24.5 -153.5q0 -99 -52 -165.5t-136.5 -95t-198.5 -28.5q-72 0 -200.5 13 t-190.5 24v147q202 -35 408 -35q98 0 145 38.5t47 101.5q0 80 -37.5 115.5t-134.5 35.5q-56 0 -166 -7t-172 -15q-35 32 -60.5 88.5t-25.5 103.5q0 111 55 172q-106 80 -106 289q0 86 23 150t61 103t94.5 62.5t115.5 32t132 8.5q90 0 160 -28l297 14v-154l-142 7 q47 -86 47 -211zM737 682q0 211 -209 211q-129 0 -180 -52.5t-51 -174.5q0 -97 45 -150t156 -53q55 0 95 8.5t74.5 31.5t52 67.5t17.5 111.5z" />
<glyph unicode="&#x11e;" d="M733 1837h166q-42 -266 -291 -266t-291 266h168q8 -141 123 -141q110 0 125 141zM881 754v-734q-185 -34 -322 -34q-98 0 -165 20t-119.5 69t-82 136t-44.5 215t-15 313q0 151 12 262.5t39.5 190t64 128.5t93 78.5t118.5 39t148 10.5q107 0 230 -29v-147q-140 26 -267 26 q-57 0 -94.5 -12t-71 -46.5t-51.5 -98.5t-28.5 -166t-10.5 -250q0 -129 6 -223t19 -159.5t30.5 -106t46 -63t58.5 -30.5t74 -8q63 0 162 15v454h-183v150h353z" />
<glyph unicode="&#x11f;" horiz-adv-x="1067" d="M674 1427h166q-42 -266 -291 -266t-291 266h168q8 -141 123 -141q110 0 125 141zM911 666q0 -174 -101.5 -259t-311.5 -85q-78 0 -136 12q-20 -45 -20 -88q0 -28 10 -58q196 17 256 17q80 0 137.5 -12.5t105.5 -45t72.5 -94t24.5 -153.5q0 -99 -52 -165.5t-136.5 -95 t-198.5 -28.5q-72 0 -200.5 13t-190.5 24v147q202 -35 408 -35q98 0 145 38.5t47 101.5q0 80 -37.5 115.5t-134.5 35.5q-56 0 -166 -7t-172 -15q-35 32 -60.5 88.5t-25.5 103.5q0 111 55 172q-106 80 -106 289q0 86 23 150t61 103t94.5 62.5t115.5 32t132 8.5q90 0 160 -28 l297 14v-154l-142 7q47 -86 47 -211zM737 682q0 211 -209 211q-129 0 -180 -52.5t-51 -174.5q0 -97 45 -150t156 -53q55 0 95 8.5t74.5 31.5t52 67.5t17.5 111.5z" />
<glyph unicode="&#x120;" d="M695 1571h-174v174h174v-174zM881 754v-734q-185 -34 -322 -34q-98 0 -165 20t-119.5 69t-82 136t-44.5 215t-15 313q0 151 12 262.5t39.5 190t64 128.5t93 78.5t118.5 39t148 10.5q107 0 230 -29v-147q-140 26 -267 26q-57 0 -94.5 -12t-71 -46.5t-51.5 -98.5 t-28.5 -166t-10.5 -250q0 -129 6 -223t19 -159.5t30.5 -106t46 -63t58.5 -30.5t74 -8q63 0 162 15v454h-183v150h353z" />
<glyph unicode="&#x121;" horiz-adv-x="1067" d="M636 1161h-174v174h174v-174zM911 666q0 -174 -101.5 -259t-311.5 -85q-78 0 -136 12q-20 -45 -20 -88q0 -28 10 -58q196 17 256 17q80 0 137.5 -12.5t105.5 -45t72.5 -94t24.5 -153.5q0 -99 -52 -165.5t-136.5 -95t-198.5 -28.5q-72 0 -200.5 13t-190.5 24v147 q202 -35 408 -35q98 0 145 38.5t47 101.5q0 80 -37.5 115.5t-134.5 35.5q-56 0 -166 -7t-172 -15q-35 32 -60.5 88.5t-25.5 103.5q0 111 55 172q-106 80 -106 289q0 86 23 150t61 103t94.5 62.5t115.5 32t132 8.5q90 0 160 -28l297 14v-154l-142 7q47 -86 47 -211zM737 682 q0 211 -209 211q-129 0 -180 -52.5t-51 -174.5q0 -97 45 -150t156 -53q55 0 95 8.5t74.5 31.5t52 67.5t17.5 111.5z" />
<glyph unicode="&#x122;" d="M651 -205l-147 -287h-139l81 287v199q-117 19 -183.5 93t-98 229.5t-31.5 422.5q0 151 12 262.5t39.5 190t64 128.5t93 78.5t118.5 39t148 10.5q107 0 230 -29v-147q-140 26 -267 26q-57 0 -94.5 -12t-71 -46.5t-51.5 -98.5t-28.5 -166t-10.5 -250q0 -129 6 -223 t19 -159.5t30.5 -106t46 -63t58.5 -30.5t74 -8q63 0 162 15v454h-183v150h353v-734q-126 -24 -230 -31v-194z" />
<glyph unicode="&#x123;" horiz-adv-x="1067" d="M395 1145v127q56 -12 111 -12q88 0 88 44q0 10 -4 19q-9 23 -20 34t-46 19t-100 8l41 258h133l-23 -157q93 -27 131.5 -61t38.5 -107q0 -94 -59 -140.5t-162 -46.5q-48 0 -129 15zM911 666q0 -174 -101.5 -259t-311.5 -85q-78 0 -136 12q-20 -45 -20 -88q0 -28 10 -58 q196 17 256 17q80 0 137.5 -12.5t105.5 -45t72.5 -94t24.5 -153.5q0 -99 -52 -165.5t-136.5 -95t-198.5 -28.5q-72 0 -200.5 13t-190.5 24v147q202 -35 408 -35q98 0 145 38.5t47 101.5q0 80 -37.5 115.5t-134.5 35.5q-56 0 -166 -7t-172 -15q-35 32 -60.5 88.5t-25.5 103.5 q0 111 55 172q-106 80 -106 289q0 86 23 150t61 103t94.5 62.5t115.5 32t132 8.5q90 0 160 -28l297 14v-154l-142 7q47 -86 47 -211zM737 682q0 211 -209 211q-129 0 -180 -52.5t-51 -174.5q0 -97 45 -150t156 -53q55 0 95 8.5t74.5 31.5t52 67.5t17.5 111.5z" />
<glyph unicode="&#x124;" horiz-adv-x="1126" d="M884 1571h-199l-123 172l-123 -172h-196l229 276h180zM952 0h-178v659h-422v-659h-178v1434h178v-623h422v623h178v-1434z" />
<glyph unicode="&#x125;" horiz-adv-x="1036" d="M844 1556h-199l-123 173l-123 -173h-196l229 277h180zM338 0h-174v1434h174v-486q99 90 235 90q171 0 240.5 -85t69.5 -277v-676h-174v696q0 104 -34 149.5t-132 45.5q-83 0 -144 -57t-61 -117v-717z" />
<glyph unicode="&#x126;" horiz-adv-x="1126" d="M952 0h-178v659h-422v-659h-178v1030h-137v154h137v250h178v-250h422v250h178v-250h117v-154h-117v-1030zM774 1030h-422v-219h422v219z" />
<glyph unicode="&#x127;" horiz-adv-x="1036" d="M338 0h-174v1153h-164v154h164v127h174v-127h328v-154h-328v-205q99 90 235 90q171 0 240.5 -85t69.5 -277v-676h-174v696q0 104 -34 149.5t-132 45.5q-83 0 -144 -57t-61 -117v-717z" />
<glyph unicode="&#x128;" horiz-adv-x="649" d="M38 1577v149q81 68 176 68q50 0 122.5 -40t110.5 -40q50 0 84.5 17t79.5 57v-150q-70 -67 -176 -67q-43 0 -83 20t-77 40t-73 20q-82 0 -164 -74zM557 0h-465v150h144v1134h-144v150h465v-150h-143v-1134h143v-150z" />
<glyph unicode="&#x129;" horiz-adv-x="501" d="M-37 1167v150q80 67 176 67q50 0 123 -39.5t111 -39.5q50 0 85 17t79 56v-149q-71 -68 -177 -68q-43 0 -83 20t-77 40t-73 20q-82 0 -164 -74zM338 0h-174v1024h174v-1024z" />
<glyph unicode="&#x12a;" horiz-adv-x="649" d="M586 1571h-523v143h523v-143zM557 0h-465v150h144v1134h-144v150h465v-150h-143v-1134h143v-150z" />
<glyph unicode="&#x12b;" horiz-adv-x="501" d="M511 1161h-522v144h522v-144zM338 0h-174v1024h174v-1024z" />
<glyph unicode="&#x12c;" horiz-adv-x="649" d="M450 1837h165q-42 -266 -290 -266q-249 0 -291 266h168q8 -141 123 -141q110 0 125 141zM557 0h-465v150h144v1134h-144v150h465v-150h-143v-1134h143v-150z" />
<glyph unicode="&#x12d;" horiz-adv-x="501" d="M375 1427h166q-42 -266 -291 -266t-291 266h168q8 -141 123 -141q110 0 125 141zM338 0h-174v1024h174v-1024z" />
<glyph unicode="&#x12e;" horiz-adv-x="649" d="M530 -322v-133q-78 -20 -153 -20q-131 0 -182.5 49t-51.5 176q0 64 28.5 132t68.5 118h-148v150h144v1134h-144v150h465v-150h-143v-1134h143v-150h-172q-35 -58 -57.5 -129.5t-22.5 -118.5q0 -52 21 -70t69 -18q49 0 135 14z" />
<glyph unicode="&#x12f;" horiz-adv-x="501" d="M457 -322v-133q-78 -20 -154 -20q-131 0 -182 49t-51 176q0 64 28 132t68 118h-2v1024h174v-1024h-27q-35 -58 -57.5 -129.5t-22.5 -118.5q0 -52 21 -70t70 -18t135 14zM348 1249h-194v185h194v-185z" />
<glyph unicode="&#x130;" horiz-adv-x="649" d="M412 1571h-174v174h174v-174zM557 0h-465v150h144v1134h-144v150h465v-150h-143v-1134h143v-150z" />
<glyph unicode="&#x131;" horiz-adv-x="501" d="M338 0h-174v1024h174v-1024z" />
<glyph unicode="&#x132;" horiz-adv-x="1468" d="M1305 514q0 -133 -13.5 -225t-39.5 -152t-72 -93t-101.5 -45.5t-138.5 -12.5q-87 0 -219 20v152q112 -19 207 -19q79 0 118.5 25t59.5 102.5t20 233.5v784h-329v150h508v-920zM557 0h-465v150h144v1134h-144v150h465v-150h-143v-1134h143v-150z" />
<glyph unicode="&#x133;" horiz-adv-x="1003" d="M735 1024v-1112q0 -121 -65.5 -195.5t-188.5 -74.5q-86 0 -178 10v145q86 -8 152 -8q51 0 78.5 29.5t27.5 83.5v1122h174zM745 1249h-194v185h194v-185zM348 1249h-194v185h194v-185zM338 0h-174v1024h174v-1024z" />
<glyph unicode="&#x134;" horiz-adv-x="819" d="M722 1571h-199l-123 172l-122 -172h-197l229 276h180zM655 514q0 -111 -8.5 -192.5t-28.5 -140.5t-47.5 -96.5t-70 -59.5t-92 -30.5t-117.5 -8.5q-87 0 -219 20v152q112 -19 207 -19q79 0 118.5 25t59.5 102.5t20 233.5v784h-330v150h508v-920z" />
<glyph unicode="&#x135;" horiz-adv-x="501" d="M338 1024v-1112q0 -121 -65.5 -195.5t-188.5 -74.5q-86 0 -178 10v145q86 -8 151 -8q51 0 79 29.5t28 83.5v1122h174zM555 1167h-199l-123 172l-122 -172h-197l229 277h181z" />
<glyph unicode="&#x136;" horiz-adv-x="1007" d="M703 -328l-147 -286h-139l82 286v205h204v-205zM946 0h-201l-319 657l-74 -122v-535h-178v1434h178v-629l383 629h191l-389 -627z" />
<glyph unicode="&#x137;" horiz-adv-x="950" d="M676 -205l-148 -287h-139l82 287v205h188l-260 510l-61 -72v-438h-174v1434h174v-779l313 369h213l-346 -395l361 -629h-203v-205z" />
<glyph unicode="&#x139;" horiz-adv-x="839" d="M345 1571h-166l213 276h223zM809 0h-635v1434h178v-1278h457v-156z" />
<glyph unicode="&#x13a;" horiz-adv-x="542" d="M333 1556h-166l213 277h223zM461 154v-144q-77 -16 -123 -16q-33 0 -61.5 11t-55 36t-42 73.5t-15.5 114.5v1205h174v-1194q0 -55 14.5 -76t53.5 -21q10 0 21 2t21.5 5.5t12.5 3.5z" />
<glyph unicode="&#x13b;" horiz-adv-x="839" d="M614 -205l-147 -287h-139l82 287v205h-236v1434h178v-1278h457v-156h-195v-205z" />
<glyph unicode="&#x13c;" horiz-adv-x="542" d="M406 -168l-148 -287h-139l82 287v205h25q-62 60 -62 192v1205h174v-1194q0 -55 14.5 -76t53.5 -21q10 0 21 2t21.5 5.5t12.5 3.5v-144q-5 -1 -15 -3.5t-20 -4.5t-20 -3v-167z" />
<glyph unicode="&#x13d;" horiz-adv-x="839" d="M795 1243l-148 -287h-139l82 287v205h205v-205zM809 0h-635v1434h178v-1278h457v-156z" />
<glyph unicode="&#x13e;" horiz-adv-x="542" d="M721 1229l-148 -287h-139l82 287v205h205v-205zM461 154v-144q-77 -16 -123 -16q-33 0 -61.5 11t-55 36t-42 73.5t-15.5 114.5v1205h174v-1194q0 -55 14.5 -76t53.5 -21q10 0 21 2t21.5 5.5t12.5 3.5z" />
<glyph unicode="&#x13f;" horiz-adv-x="839" d="M809 0h-635v1434h178v-1278h457v-156zM680 622h-205v204h205v-204z" />
<glyph unicode="&#x140;" horiz-adv-x="1013" d="M461 154v-144q-77 -16 -123 -16q-33 0 -61.5 11t-55 36t-42 73.5t-15.5 114.5v1205h174v-1194q0 -55 14.5 -76t53.5 -21q10 0 21 2t21.5 5.5t12.5 3.5zM705 532h-205v205h205v-205z" />
<glyph unicode="&#x141;" horiz-adv-x="860" d="M809 0h-635v674l-123 -60v164l123 60v596h178v-510l252 120v-163l-252 -121v-604h457v-156z" />
<glyph unicode="&#x142;" horiz-adv-x="573" d="M481 154v-144q-77 -16 -123 -16q-33 0 -61.5 11t-55 36t-42 73.5t-15.5 114.5v457l-112 -72v160l112 74v586h174v-473l123 81v-163l-123 -80v-559q0 -55 14.5 -76t53.5 -21q10 0 21 2t21.5 5.5t12.5 3.5z" />
<glyph unicode="&#x143;" horiz-adv-x="1120" d="M643 1571h-166l213 276h223zM946 0h-293l-313 1282v-1282h-166v1434h291l315 -1282v1282h166v-1434z" />
<glyph unicode="&#x144;" horiz-adv-x="1036" d="M606 1161h-166l213 277h224zM338 0h-174v1024h143l15 -92q100 106 251 106q171 0 240.5 -85t69.5 -277v-676h-174v696q0 104 -34 149.5t-132 45.5q-83 0 -144 -57t-61 -117v-717z" />
<glyph unicode="&#x145;" horiz-adv-x="1120" d="M766 -205l-148 -287h-139l82 287v205h92l-313 1282v-1282h-166v1434h291l315 -1282v1282h166v-1434h-180v-205z" />
<glyph unicode="&#x146;" horiz-adv-x="1036" d="M750 -205l-148 -287h-139l82 287v205h164v696q0 104 -34 149.5t-132 45.5q-83 0 -144 -57t-61 -117v-717h-174v1024h143l15 -92q100 106 251 106q171 0 240.5 -85t69.5 -277v-676h-133v-205z" />
<glyph unicode="&#x147;" horiz-adv-x="1120" d="M240 1847h198l123 -172l123 172h197l-230 -276h-180zM946 0h-293l-313 1282v-1282h-166v1434h291l315 -1282v1282h166v-1434z" />
<glyph unicode="&#x148;" horiz-adv-x="1036" d="M203 1438h198l123 -172l123 172h197l-230 -277h-180zM338 0h-174v1024h143l15 -92q100 106 251 106q171 0 240.5 -85t69.5 -277v-676h-174v696q0 104 -34 149.5t-132 45.5q-83 0 -144 -57t-61 -117v-717z" />
<glyph unicode="&#x149;" horiz-adv-x="1036" d="M205 1356l-123 -322h-133l61 322v184h195v-184zM338 0h-174v1024h143l15 -92q100 106 251 106q171 0 240.5 -85t69.5 -277v-676h-174v696q0 104 -34 149.5t-132 45.5q-83 0 -144 -57t-61 -117v-717z" />
<glyph unicode="&#x14c;" horiz-adv-x="1122" d="M822 1571h-522v143h522v-143zM807 723q0 228 -24 351t-75.5 173.5t-146.5 50.5t-146.5 -50.5t-75.5 -173.5t-24 -351q0 -223 23.5 -349.5t76.5 -182.5t146 -56t146 56t76.5 182.5t23.5 349.5zM989 733q0 -157 -12 -271.5t-41 -207.5t-78 -150.5t-122.5 -87.5t-174.5 -30 t-174.5 30t-122.5 87.5t-78 150.5t-41 207.5t-12 271.5q0 150 12 260t41 199t78 143.5t122.5 83.5t174.5 29t174.5 -29t122.5 -83.5t78 -143.5t41 -199t12 -260z" />
<glyph unicode="&#x14d;" horiz-adv-x="1044" d="M783 1161h-522v144h522v-144zM911 532q0 -159 -24.5 -266.5t-75.5 -168.5t-120 -86t-169 -25t-169 25t-120 86t-75.5 168.5t-24.5 266.5q0 261 94.5 383.5t294.5 122.5t294.5 -122.5t94.5 -383.5zM733 502q0 221 -45 307t-166 86t-166 -86t-45 -307q0 -201 48 -287 t163 -86t163 86t48 287z" />
<glyph unicode="&#x14e;" horiz-adv-x="1122" d="M686 1837h166q-42 -266 -291 -266t-291 266h168q8 -141 123 -141q110 0 125 141zM807 723q0 228 -24 351t-75.5 173.5t-146.5 50.5t-146.5 -50.5t-75.5 -173.5t-24 -351q0 -223 23.5 -349.5t76.5 -182.5t146 -56t146 56t76.5 182.5t23.5 349.5zM989 733 q0 -157 -12 -271.5t-41 -207.5t-78 -150.5t-122.5 -87.5t-174.5 -30t-174.5 30t-122.5 87.5t-78 150.5t-41 207.5t-12 271.5q0 150 12 260t41 199t78 143.5t122.5 83.5t174.5 29t174.5 -29t122.5 -83.5t78 -143.5t41 -199t12 -260z" />
<glyph unicode="&#x14f;" horiz-adv-x="1044" d="M647 1427h166q-42 -266 -291 -266t-291 266h168q8 -141 123 -141q110 0 125 141zM911 532q0 -159 -24.5 -266.5t-75.5 -168.5t-120 -86t-169 -25t-169 25t-120 86t-75.5 168.5t-24.5 266.5q0 261 94.5 383.5t294.5 122.5t294.5 -122.5t94.5 -383.5zM733 502 q0 221 -45 307t-166 86t-166 -86t-45 -307q0 -201 48 -287t163 -86t163 86t48 287z" />
<glyph unicode="&#x150;" horiz-adv-x="1122" d="M766 1872l-301 -301h-156l211 301h246zM1114 1872l-301 -301h-156l211 301h246zM807 723q0 228 -24 351t-75.5 173.5t-146.5 50.5t-146.5 -50.5t-75.5 -173.5t-24 -351q0 -223 23.5 -349.5t76.5 -182.5t146 -56t146 56t76.5 182.5t23.5 349.5zM989 733q0 -157 -12 -271.5 t-41 -207.5t-78 -150.5t-122.5 -87.5t-174.5 -30t-174.5 30t-122.5 87.5t-78 150.5t-41 207.5t-12 271.5q0 150 12 260t41 199t78 143.5t122.5 83.5t174.5 29t174.5 -29t122.5 -83.5t78 -143.5t41 -199t12 -260z" />
<glyph unicode="&#x151;" horiz-adv-x="1044" d="M727 1462l-301 -301h-156l211 301h246zM1075 1462l-301 -301h-156l211 301h246zM911 532q0 -159 -24.5 -266.5t-75.5 -168.5t-120 -86t-169 -25t-169 25t-120 86t-75.5 168.5t-24.5 266.5q0 261 94.5 383.5t294.5 122.5t294.5 -122.5t94.5 -383.5zM733 502q0 221 -45 307 t-166 86t-166 -86t-45 -307q0 -201 48 -287t163 -86t163 86t48 287z" />
<glyph unicode="&#x152;" horiz-adv-x="1568" d="M1446 0h-776q-77 -14 -109 -14q-101 0 -174.5 30t-122.5 87.5t-78 150.5t-41 207.5t-12 271.5q0 150 12 260t41 199t78 143.5t122.5 83.5t174.5 29q32 0 109 -14h776v-150h-561q82 -139 88 -469h422v-149h-420q-6 -369 -94 -516h565v-150zM797 723q0 230 -21 351.5 t-71 172.5t-144 51q-95 0 -146.5 -50.5t-75.5 -173.5t-24 -351q0 -223 23.5 -349.5t76.5 -182.5t146 -56q137 0 186.5 127t49.5 461z" />
<glyph unicode="&#x153;" horiz-adv-x="1558" d="M1436 451h-529q2 -99 14.5 -163.5t37 -97.5t52.5 -45t70 -12q27 0 56.5 2t51 4.5t51 7.5t43 7.5t41.5 8.5t32 7v-150q-125 -34 -254 -34q-107 0 -177 26t-112 94q-86 -120 -291 -120q-100 0 -169 25t-120 86t-75.5 168.5t-24.5 266.5q0 261 94.5 383.5t294.5 122.5 q206 0 299 -137q88 137 285 137q330 0 330 -434v-153zM1102 893q-100 0 -143 -65.5t-50 -237.5h357v55q0 122 -38.5 185t-125.5 63zM733 502q0 221 -45 307t-166 86t-166 -86t-45 -307q0 -201 48 -287t163 -86t163 86t48 287z" />
<glyph unicode="&#x154;" horiz-adv-x="1054" d="M603 1571h-166l213 276h223zM918 1030q0 -326 -205 -407l280 -623h-196l-262 594h-183v-594h-178v1434q176 14 346 14q114 0 193 -29t123 -86t63 -130.5t19 -172.5zM735 1016q0 153 -42 218.5t-148 65.5q-50 0 -98.5 -3t-71.5 -6l-23 -3v-545h193q46 0 78.5 11.5t59 41 t39.5 84t13 136.5z" />
<glyph unicode="&#x155;" horiz-adv-x="692" d="M485 1161h-166l213 277h224zM338 0h-174v1024h143l12 -104q79 118 213 118q67 0 109 -10v-182q-79 18 -123 18q-48 0 -84.5 -20.5t-56.5 -55t-29.5 -74t-9.5 -83.5v-631z" />
<glyph unicode="&#x156;" horiz-adv-x="1054" d="M918 1030q0 -326 -205 -407l280 -623h-196l-262 594h-183v-594h-178v1434q176 14 346 14q114 0 193 -29t123 -86t63 -130.5t19 -172.5zM735 1016q0 153 -42 218.5t-148 65.5q-50 0 -98.5 -3t-71.5 -6l-23 -3v-545h193q46 0 78.5 11.5t59 41t39.5 84t13 136.5zM561 -205 l-147 -287h-140l82 287v205h205v-205z" />
<glyph unicode="&#x157;" horiz-adv-x="692" d="M475 -205l-147 -287h-140l82 287v205h-106v1024h143l12 -104q79 118 213 118q67 0 109 -10v-182q-79 18 -123 18q-48 0 -84.5 -20.5t-56.5 -55t-29.5 -74t-9.5 -83.5v-631h137v-205z" />
<glyph unicode="&#x158;" horiz-adv-x="1054" d="M200 1847h198l123 -172l123 172h197l-230 -276h-180zM918 1030q0 -326 -205 -407l280 -623h-196l-262 594h-183v-594h-178v1434q176 14 346 14q114 0 193 -29t123 -86t63 -130.5t19 -172.5zM735 1016q0 153 -42 218.5t-148 65.5q-50 0 -98.5 -3t-71.5 -6l-23 -3v-545h193 q46 0 78.5 11.5t59 41t39.5 84t13 136.5z" />
<glyph unicode="&#x159;" horiz-adv-x="692" d="M82 1438h199l122 -172l123 172h197l-229 -277h-181zM338 0h-174v1024h143l12 -104q79 118 213 118q67 0 109 -10v-182q-79 18 -123 18q-48 0 -84.5 -20.5t-56.5 -55t-29.5 -74t-9.5 -83.5v-631z" />
<glyph unicode="&#x15a;" horiz-adv-x="888" d="M605 1571h-166l213 276h224zM780 408q0 -124 -28 -208.5t-84 -130.5t-126 -64.5t-167 -18.5q-121 0 -238 30v150q122 -31 258 -31q105 0 154 62t49 190q0 143 -39 202t-127 77q-172 36 -242.5 121.5t-70.5 265.5q0 395 403 395q103 0 217 -31v-149q-131 30 -237 30 q-85 0 -143 -55t-58 -168q0 -125 31 -172t127 -67q80 -17 134.5 -42.5t99 -73t66 -125t21.5 -187.5z" />
<glyph unicode="&#x15b;" horiz-adv-x="823" d="M550 1161h-166l213 277h223zM721 297q0 -311 -344 -311q-126 0 -246 32v150q168 -33 260 -33q74 0 111 45.5t37 106.5q0 75 -27 109.5t-102 47.5q-153 27 -220 97t-67 188q0 158 94 233.5t250 75.5q30 0 58.5 -2.5t54 -7t41 -8t38.5 -9.5t27 -7v-150q-12 3 -48.5 12 t-55.5 13t-55.5 8t-75.5 4q-46 0 -77 -12.5t-46 -35.5t-21 -47.5t-6 -56.5q0 -113 131 -133q157 -26 223 -99.5t66 -209.5z" />
<glyph unicode="&#x15c;" horiz-adv-x="888" d="M843 1571h-199l-123 172l-123 -172h-196l229 276h180zM780 408q0 -124 -28 -208.5t-84 -130.5t-126 -64.5t-167 -18.5q-121 0 -238 30v150q122 -31 258 -31q105 0 154 62t49 190q0 143 -39 202t-127 77q-172 36 -242.5 121.5t-70.5 265.5q0 395 403 395q103 0 217 -31 v-149q-131 30 -237 30q-85 0 -143 -55t-58 -168q0 -125 31 -172t127 -67q80 -17 134.5 -42.5t99 -73t66 -125t21.5 -187.5z" />
<glyph unicode="&#x15d;" horiz-adv-x="823" d="M787 1161h-198l-123 172l-123 -172h-197l230 277h180zM721 297q0 -311 -344 -311q-126 0 -246 32v150q168 -33 260 -33q74 0 111 45.5t37 106.5q0 75 -27 109.5t-102 47.5q-153 27 -220 97t-67 188q0 158 94 233.5t250 75.5q30 0 58.5 -2.5t54 -7t41 -8t38.5 -9.5t27 -7 v-150q-12 3 -48.5 12t-55.5 13t-55.5 8t-75.5 4q-46 0 -77 -12.5t-46 -35.5t-21 -47.5t-6 -56.5q0 -113 131 -133q157 -26 223 -99.5t66 -209.5z" />
<glyph unicode="&#x15e;" horiz-adv-x="888" d="M239 -495v127q55 -12 110 -12q44 0 64 13.5t20 49.5q0 33 -34.5 47.5t-131.5 14.5l39 244q-103 9 -169 27v150q122 -31 258 -31q105 0 154 62t49 190q0 143 -39 202t-127 77q-172 36 -242.5 121.5t-70.5 265.5q0 395 403 395q103 0 217 -31v-149q-131 30 -237 30 q-85 0 -143 -55t-58 -168q0 -125 31 -172t127 -67q80 -17 134.5 -42.5t99 -73t66 -125t21.5 -187.5q0 -113 -23.5 -193.5t-70 -127.5t-106 -70t-141.5 -29l-20 -143q91 -10 130.5 -49.5t39.5 -118.5q0 -94 -58.5 -140t-162.5 -46q-54 0 -129 14z" />
<glyph unicode="&#x15f;" horiz-adv-x="823" d="M241 -495v127q56 -12 110 -12q44 0 64 13.5t20 49.5q0 33 -34.5 47.5t-131.5 14.5l39 243q-94 7 -177 30v150q168 -33 260 -33q74 0 111 45.5t37 106.5q0 75 -27 109.5t-102 47.5q-153 28 -220 98t-67 187q0 158 94 233.5t250 75.5q30 0 58.5 -2.5t54 -7t41 -8t38.5 -9.5 t27 -7v-150q-12 3 -48.5 12t-55.5 13t-55.5 8t-75.5 4q-46 0 -77 -12.5t-46 -35.5t-21 -47.5t-6 -56.5q0 -57 32 -89.5t99 -43.5q157 -26 223 -99.5t66 -209.5q0 -280 -280 -308l-20 -144q91 -10 130.5 -49.5t39.5 -118.5q0 -94 -58.5 -140t-162.5 -46q-54 0 -129 14z" />
<glyph unicode="&#x160;" horiz-adv-x="888" d="M162 1731h198l123 -138l123 138h197l-230 -236h-180zM780 408q0 -124 -28 -208.5t-84 -130.5t-126 -64.5t-167 -18.5q-121 0 -238 30v150q122 -31 258 -31q105 0 154 62t49 190q0 143 -39 202t-127 77q-172 36 -242.5 121.5t-70.5 265.5q0 395 403 395q103 0 217 -31 v-149q-131 30 -237 30q-85 0 -143 -55t-58 -168q0 -125 31 -172t127 -67q80 -17 134.5 -42.5t99 -73t66 -125t21.5 -187.5z" />
<glyph unicode="&#x161;" horiz-adv-x="823" d="M721 297q0 -311 -344 -311q-126 0 -246 32v150q168 -33 260 -33q74 0 111 45.5t37 106.5q0 75 -27 109.5t-102 47.5q-153 27 -220 97t-67 188q0 158 94 233.5t250 75.5q30 0 58.5 -2.5t54 -7t41 -8t38.5 -9.5t27 -7v-150q-12 3 -48.5 12t-55.5 13t-55.5 8t-75.5 4 q-46 0 -77 -12.5t-46 -35.5t-21 -47.5t-6 -56.5q0 -113 131 -133q157 -26 223 -99.5t66 -209.5zM113 1462h198l123 -172l123 172h197l-230 -276h-180z" />
<glyph unicode="&#x162;" horiz-adv-x="870" d="M299 -481v127q55 -12 111 -12q44 0 64 13.5t20 50.5q0 33 -34.5 47t-131.5 14l38 241h-20v1278h-315v156h809v-156h-316v-1278h-25l-20 -141q91 -10 130.5 -49.5t39.5 -118.5q0 -94 -58.5 -140t-162.5 -46q-54 0 -129 14z" />
<glyph unicode="&#x163;" horiz-adv-x="657" d="M284 -495v127q56 -12 110 -12q44 0 64 13.5t20 49.5q0 33 -34.5 47.5t-131.5 14.5l40 248q-85 20 -126.5 90t-41.5 173v614h-133v154h133v246h174v-246h238v-154h-238v-624q0 -17 4.5 -34.5t14.5 -36.5t32 -30.5t52 -11.5q54 0 135 21v-144q-45 -14 -112 -21l-20 -144 q91 -10 130.5 -49.5t39.5 -118.5q0 -94 -58.5 -140t-162.5 -46q-54 0 -129 14z" />
<glyph unicode="&#x164;" horiz-adv-x="870" d="M115 1847h198l123 -172l123 172h197l-230 -276h-180zM840 1278h-316v-1278h-178v1278h-315v156h809v-156z" />
<glyph unicode="&#x165;" horiz-adv-x="657" d="M596 870h-238v-624q0 -17 4.5 -34.5t14.5 -36.5t32 -30.5t52 -11.5q54 0 135 21v-144q-81 -24 -176 -24q-119 0 -177.5 74t-58.5 196v614h-133v154h133v246h174v-246h238v-154zM913 1065l-147 -287h-139l82 287v205h204v-205z" />
<glyph unicode="&#x166;" horiz-adv-x="870" d="M840 1278h-316v-360h250v-154h-250v-764h-178v764h-237v154h237v360h-315v156h809v-156z" />
<glyph unicode="&#x167;" horiz-adv-x="657" d="M596 870h-238v-192h244v-154h-244v-278q0 -17 4.5 -34.5t14.5 -36.5t32 -30.5t52 -11.5q54 0 135 21v-144q-81 -24 -176 -24q-119 0 -177.5 74t-58.5 196v268h-137v154h137v192h-133v154h133v246h174v-246h238v-154z" />
<glyph unicode="&#x168;" horiz-adv-x="1095" d="M261 1577v149q81 68 176 68q50 0 123 -40t111 -40q50 0 84.5 17t79.5 57v-150q-70 -67 -177 -67q-43 0 -83 20t-77 40t-73 20q-82 0 -164 -74zM932 1434v-1055q0 -201 -100 -297t-283 -96q-184 0 -284.5 96t-100.5 297v1055h178v-1094q0 -103 55.5 -154t151.5 -51 t150.5 50.5t54.5 154.5v1094h178z" />
<glyph unicode="&#x169;" horiz-adv-x="1005" d="M211 1167v150q80 67 176 67q50 0 123 -39.5t111 -39.5q50 0 84.5 17t78.5 56v-149q-71 -68 -176 -68q-43 0 -83 20t-77 40t-73 20q-82 0 -164 -74zM842 0h-144l-14 84q-89 -98 -235 -98q-165 0 -230 87.5t-65 282.5v668h174v-688q0 -106 29.5 -154.5t117.5 -48.5 q79 0 134.5 54t58.5 114v723h174v-1024z" />
<glyph unicode="&#x16a;" horiz-adv-x="1095" d="M809 1571h-522v143h522v-143zM932 1434v-1055q0 -201 -100 -297t-283 -96q-184 0 -284.5 96t-100.5 297v1055h178v-1094q0 -103 55.5 -154t151.5 -51t150.5 50.5t54.5 154.5v1094h178z" />
<glyph unicode="&#x16b;" horiz-adv-x="1005" d="M759 1161h-522v144h522v-144zM842 0h-144l-14 84q-89 -98 -235 -98q-165 0 -230 87.5t-65 282.5v668h174v-688q0 -106 29.5 -154.5t117.5 -48.5q79 0 134.5 54t58.5 114v723h174v-1024z" />
<glyph unicode="&#x16c;" horiz-adv-x="1095" d="M673 1837h166q-42 -266 -291 -266t-291 266h168q8 -141 123 -141q110 0 125 141zM932 1434v-1055q0 -201 -100 -297t-283 -96q-184 0 -284.5 96t-100.5 297v1055h178v-1094q0 -103 55.5 -154t151.5 -51t150.5 50.5t54.5 154.5v1094h178z" />
<glyph unicode="&#x16d;" horiz-adv-x="1005" d="M623 1427h165q-42 -266 -290 -266q-249 0 -291 266h168q8 -141 123 -141q110 0 125 141zM842 0h-144l-14 84q-89 -98 -235 -98q-165 0 -230 87.5t-65 282.5v668h174v-688q0 -106 29.5 -154.5t117.5 -48.5q79 0 134.5 54t58.5 114v723h174v-1024z" />
<glyph unicode="&#x16e;" horiz-adv-x="1095" d="M624 1782q0 100 -78 100q-41 0 -58.5 -28.5t-17.5 -71.5q0 -41 18 -71t58 -30q46 0 62 27.5t16 73.5zM742 1780q0 -91 -54 -150t-142 -59q-87 0 -140 59.5t-53 149.5q0 91 52.5 150t140.5 59q91 0 143.5 -57.5t52.5 -151.5zM932 1434v-1055q0 -201 -100 -297t-283 -96 q-184 0 -284.5 96t-100.5 297v1055h178v-1094q0 -103 55.5 -154t151.5 -51t150.5 50.5t54.5 154.5v1094h178z" />
<glyph unicode="&#x16f;" horiz-adv-x="1005" d="M573 1372q0 101 -77 101q-41 0 -58.5 -29t-17.5 -72q0 -40 18 -70t58 -30q46 0 61.5 26.5t15.5 73.5zM692 1370q0 -91 -54 -150t-142 -59q-87 0 -140 59.5t-53 149.5q0 91 52.5 150t140.5 59q91 0 143.5 -57.5t52.5 -151.5zM842 0h-144l-14 84q-89 -98 -235 -98 q-165 0 -230 87.5t-65 282.5v668h174v-688q0 -106 29.5 -154.5t117.5 -48.5q79 0 134.5 54t58.5 114v723h174v-1024z" />
<glyph unicode="&#x170;" horiz-adv-x="1095" d="M753 1872l-301 -301h-156l211 301h246zM1101 1872l-301 -301h-156l211 301h246zM932 1434v-1055q0 -201 -100 -297t-283 -96q-184 0 -284.5 96t-100.5 297v1055h178v-1094q0 -103 55.5 -154t151.5 -51t150.5 50.5t54.5 154.5v1094h178z" />
<glyph unicode="&#x171;" horiz-adv-x="1005" d="M702 1462l-301 -301h-155l211 301h245zM1051 1462l-301 -301h-156l211 301h246zM842 0h-144l-14 84q-89 -98 -235 -98q-165 0 -230 87.5t-65 282.5v668h174v-688q0 -106 29.5 -154.5t117.5 -48.5q79 0 134.5 54t58.5 114v723h174v-1024z" />
<glyph unicode="&#x172;" horiz-adv-x="1095" d="M755 -336v-133q-78 -20 -154 -20q-131 0 -182 49t-51 176q0 66 30 135t71 120q-305 40 -305 388v1055h178v-1094q0 -103 55.5 -154t151.5 -51t150.5 50.5t54.5 154.5v1094h178v-1055q0 -358 -321 -390q-36 -59 -59 -131t-23 -120q0 -52 21 -70t70 -18t135 14z" />
<glyph unicode="&#x173;" horiz-adv-x="1005" d="M961 -336v-133q-78 -20 -154 -20q-131 0 -182.5 49t-51.5 176q0 69 34 143t77 123h14l-14 82q-89 -98 -235 -98q-165 0 -230 87.5t-65 282.5v668h174v-688q0 -106 29.5 -154.5t117.5 -48.5q79 0 134.5 54t58.5 114v723h174v-1024h-18q-39 -60 -64 -136t-25 -126 q0 -52 21 -70t69 -18q50 0 136 14z" />
<glyph unicode="&#x174;" horiz-adv-x="1206" d="M939 1571h-199l-123 172l-122 -172h-197l229 276h181zM1104 1434l-70 -1434h-278l-138 623l-149 -623h-266l-70 1434h158l61 -1321l185 716h168l186 -716l63 1321h150z" />
<glyph unicode="&#x175;" horiz-adv-x="1372" d="M1007 1161h-199l-123 172l-123 -172h-196l229 277h180zM1290 1024l-203 -1024h-268l-129 555l-141 -555h-262l-205 1024h180l166 -893l182 709h174l170 -709l166 893h170z" />
<glyph unicode="&#x176;" horiz-adv-x="1005" d="M823 1571h-198l-123 172l-123 -172h-197l230 276h180zM965 1434l-373 -768v-666h-184v666l-367 768h197l270 -596l270 596h187z" />
<glyph unicode="&#x177;" horiz-adv-x="948" d="M795 1161h-199l-123 172l-123 -172h-196l229 277h180zM877 1024l-297 -1114q-18 -69 -35 -111t-45 -81.5t-71 -57.5t-103 -18q-42 0 -117 12v149q58 -8 106 -8q57 0 82 92l33 113h-41l-317 1024h188l238 -846l200 846h179z" />
<glyph unicode="&#x178;" horiz-adv-x="1005" d="M965 1434l-373 -768v-666h-184v666l-367 768h197l270 -596l270 596h187zM803 1505h-174v164h174v-164zM393 1505h-174v164h174v-164z" />
<glyph unicode="&#x179;" horiz-adv-x="892" d="M553 1571h-166l213 276h223zM801 1253l-527 -1101h506v-152h-688v180l529 1102h-482v152h662v-181z" />
<glyph unicode="&#x17a;" horiz-adv-x="825" d="M511 1161h-166l213 277h223zM723 842l-442 -690h421v-152h-610v164l445 708h-404v152h590v-182z" />
<glyph unicode="&#x17b;" horiz-adv-x="892" d="M557 1571h-174v174h174v-174zM801 1253l-527 -1101h506v-152h-688v180l529 1102h-482v152h662v-181z" />
<glyph unicode="&#x17c;" horiz-adv-x="825" d="M515 1161h-174v174h174v-174zM723 842l-442 -690h421v-152h-610v164l445 708h-404v152h590v-182z" />
<glyph unicode="&#x17d;" horiz-adv-x="892" d="M147 1731h199l123 -138l123 138h196l-229 -236h-180zM801 1253l-527 -1101h506v-152h-688v180l529 1102h-482v152h662v-181z" />
<glyph unicode="&#x17e;" horiz-adv-x="825" d="M723 842l-442 -690h421v-152h-610v164l445 708h-404v152h590v-182zM123 1462h199l122 -172l123 172h197l-229 -276h-181z" />
<glyph unicode="&#x192;" horiz-adv-x="634" d="M616 874h-247v-962q0 -120 -66 -195t-188 -75q-86 0 -178 10v145q86 -8 151 -8q51 0 79 29.5t28 83.5v972h-134v150h134v160q0 129 70.5 196.5t189.5 67.5q25 0 49 -1.5t46 -5t36 -6t34.5 -7t26.5 -5.5v-145q-95 22 -166 22q-54 0 -83 -28t-29 -74v-174h247v-150z" />
<glyph unicode="&#x1a0;" horiz-adv-x="1261" d="M807 723q0 228 -24 351t-75.5 173.5t-146.5 50.5t-146.5 -50.5t-75.5 -173.5t-24 -351q0 -223 23.5 -349.5t76.5 -182.5t146 -56t146 56t76.5 182.5t23.5 349.5zM989 733q0 -157 -12 -271.5t-41 -207.5t-78 -150.5t-122.5 -87.5t-174.5 -30t-174.5 30t-122.5 87.5 t-78 150.5t-41 207.5t-12 271.5q0 150 12 260t41 199t78 143.5t122.5 83.5t174.5 29t174.5 -29t122.5 -83.5t78 -143.5t41 -199t12 -260zM1319 1243l-148 -287h-139l82 287v205h205v-205z" />
<glyph unicode="&#x1a1;" horiz-adv-x="1155" d="M911 532q0 -159 -24.5 -266.5t-75.5 -168.5t-120 -86t-169 -25t-169 25t-120 86t-75.5 168.5t-24.5 266.5q0 261 94.5 383.5t294.5 122.5t294.5 -122.5t94.5 -383.5zM733 502q0 221 -45 307t-166 86t-166 -86t-45 -307q0 -201 48 -287t163 -86t163 86t48 287zM1237 834 l-147 -287h-140l82 287v204h205v-204z" />
<glyph unicode="&#x1af;" horiz-adv-x="1095" d="M1280 1243l-147 -287h-140l82 287v205h205v-205zM932 1434v-1055q0 -201 -100 -297t-283 -96q-184 0 -284.5 96t-100.5 297v1055h178v-1094q0 -103 55.5 -154t151.5 -51t150.5 50.5t54.5 154.5v1094h178z" />
<glyph unicode="&#x1b0;" horiz-adv-x="1005" d="M1190 834l-148 -287h-139l82 287v204h205v-204zM842 0h-144l-14 84q-89 -98 -235 -98q-165 0 -230 87.5t-65 282.5v668h174v-688q0 -106 29.5 -154.5t117.5 -48.5q79 0 134.5 54t58.5 114v723h174v-1024z" />
<glyph unicode="&#x1cd;" d="M195 1847h198l123 -172l123 172h197l-230 -276h-180zM680 516l-168 782l-166 -782h334zM973 0h-182l-78 362h-400l-80 -362h-182l346 1434h236z" />
<glyph unicode="&#x1ce;" horiz-adv-x="985" d="M134 1438h199l123 -172l123 172h196l-229 -277h-180zM893 0h-62q-25 0 -51 6.5t-57 30.5t-45 63q-79 -114 -270 -114q-49 0 -90 7t-82.5 27t-69.5 52.5t-46 87.5t-18 129q0 164 96.5 253t268.5 89h162v110q0 67 -40 108.5t-114 41.5q-146 0 -297 -43v149q135 41 277 41 q195 0 271.5 -79t76.5 -259v-491q0 -66 90 -66v-143zM449 133q49 0 87 16t56.5 40.5t27.5 46.5t9 40v216h-172q-73 0 -124.5 -48t-51.5 -143q0 -92 41.5 -130t126.5 -38z" />
<glyph unicode="&#x1cf;" horiz-adv-x="649" d="M4 1847h199l123 -172l123 172h196l-229 -276h-180zM557 0h-465v150h144v1134h-144v150h465v-150h-143v-1134h143v-150z" />
<glyph unicode="&#x1d0;" horiz-adv-x="501" d="M-71 1438h199l123 -172l123 172h196l-229 -277h-180zM338 0h-174v1024h174v-1024z" />
<glyph unicode="&#x1d1;" horiz-adv-x="1122" d="M241 1847h198l123 -172l123 172h197l-230 -276h-180zM807 723q0 228 -24 351t-75.5 173.5t-146.5 50.5t-146.5 -50.5t-75.5 -173.5t-24 -351q0 -223 23.5 -349.5t76.5 -182.5t146 -56t146 56t76.5 182.5t23.5 349.5zM989 733q0 -157 -12 -271.5t-41 -207.5t-78 -150.5 t-122.5 -87.5t-174.5 -30t-174.5 30t-122.5 87.5t-78 150.5t-41 207.5t-12 271.5q0 150 12 260t41 199t78 143.5t122.5 83.5t174.5 29t174.5 -29t122.5 -83.5t78 -143.5t41 -199t12 -260z" />
<glyph unicode="&#x1d2;" horiz-adv-x="1044" d="M202 1438h198l123 -172l123 172h197l-230 -277h-180zM911 532q0 -159 -24.5 -266.5t-75.5 -168.5t-120 -86t-169 -25t-169 25t-120 86t-75.5 168.5t-24.5 266.5q0 261 94.5 383.5t294.5 122.5t294.5 -122.5t94.5 -383.5zM733 502q0 221 -45 307t-166 86t-166 -86 t-45 -307q0 -201 48 -287t163 -86t163 86t48 287z" />
<glyph unicode="&#x1d3;" horiz-adv-x="1095" d="M227 1847h199l123 -172l123 172h196l-229 -276h-180zM932 1434v-1055q0 -201 -100 -297t-283 -96q-184 0 -284.5 96t-100.5 297v1055h178v-1094q0 -103 55.5 -154t151.5 -51t150.5 50.5t54.5 154.5v1094h178z" />
<glyph unicode="&#x1d4;" horiz-adv-x="1005" d="M177 1438h199l123 -172l123 172h196l-229 -277h-180zM842 0h-144l-14 84q-89 -98 -235 -98q-165 0 -230 87.5t-65 282.5v668h174v-688q0 -106 29.5 -154.5t117.5 -48.5q79 0 134.5 54t58.5 114v723h174v-1024z" />
<glyph unicode="&#x1d5;" horiz-adv-x="1095" d="M813 1792h-522v143h522v-143zM844 1505h-174v164h174v-164zM434 1505h-174v164h174v-164zM932 1434v-1055q0 -201 -100 -297t-283 -96q-184 0 -284.5 96t-100.5 297v1055h178v-1094q0 -103 55.5 -154t151.5 -51t150.5 50.5t54.5 154.5v1094h178z" />
<glyph unicode="&#x1d6;" horiz-adv-x="1005" d="M762 1505h-522v144h522v-144zM842 0h-144l-14 84q-89 -98 -235 -98q-165 0 -230 87.5t-65 282.5v668h174v-688q0 -106 29.5 -154.5t117.5 -48.5q79 0 134.5 54t58.5 114v723h174v-1024zM793 1219h-175v163h175v-163zM383 1219h-174v163h174v-163z" />
<glyph unicode="&#x1d7;" horiz-adv-x="1095" d="M635 1792h-166l213 276h223zM844 1505h-174v164h174v-164zM434 1505h-174v164h174v-164zM932 1434v-1055q0 -201 -100 -297t-283 -96q-184 0 -284.5 96t-100.5 297v1055h178v-1094q0 -103 55.5 -154t151.5 -51t150.5 50.5t54.5 154.5v1094h178z" />
<glyph unicode="&#x1d8;" horiz-adv-x="1005" d="M584 1505h-166l213 277h223zM842 0h-144l-14 84q-89 -98 -235 -98q-165 0 -230 87.5t-65 282.5v668h174v-688q0 -106 29.5 -154.5t117.5 -48.5q79 0 134.5 54t58.5 114v723h174v-1024zM793 1219h-175v163h175v-163zM383 1219h-174v163h174v-163z" />
<glyph unicode="&#x1d9;" horiz-adv-x="1095" d="M231 2068h199l123 -172l123 172h196l-229 -276h-180zM844 1505h-174v164h174v-164zM434 1505h-174v164h174v-164zM932 1434v-1055q0 -201 -100 -297t-283 -96q-184 0 -284.5 96t-100.5 297v1055h178v-1094q0 -103 55.5 -154t151.5 -51t150.5 50.5t54.5 154.5v1094h178z " />
<glyph unicode="&#x1da;" horiz-adv-x="1005" d="M180 1782h199l123 -172l123 172h196l-229 -277h-180zM842 0h-144l-14 84q-89 -98 -235 -98q-165 0 -230 87.5t-65 282.5v668h174v-688q0 -106 29.5 -154.5t117.5 -48.5q79 0 134.5 54t58.5 114v723h174v-1024zM793 1219h-175v163h175v-163zM383 1219h-174v163h174v-163z " />
<glyph unicode="&#x1db;" horiz-adv-x="1095" d="M635 1792h-166l-270 276h223zM844 1505h-174v164h174v-164zM434 1505h-174v164h174v-164zM932 1434v-1055q0 -201 -100 -297t-283 -96q-184 0 -284.5 96t-100.5 297v1055h178v-1094q0 -103 55.5 -154t151.5 -51t150.5 50.5t54.5 154.5v1094h178z" />
<glyph unicode="&#x1dc;" horiz-adv-x="1005" d="M584 1505h-166l-271 277h224zM842 0h-144l-14 84q-89 -98 -235 -98q-165 0 -230 87.5t-65 282.5v668h174v-688q0 -106 29.5 -154.5t117.5 -48.5q79 0 134.5 54t58.5 114v723h174v-1024zM793 1219h-175v163h175v-163zM383 1219h-174v163h174v-163z" />
<glyph unicode="&#x1de;" d="M766 1792h-522v143h522v-143zM680 516l-168 782l-166 -782h334zM973 0h-182l-78 362h-400l-80 -362h-182l346 1434h236zM803 1505h-174v164h162zM393 1505h-174v164h174v-164z" />
<glyph unicode="&#x1df;" horiz-adv-x="985" d="M752 1505h-523v144h523v-144zM893 0h-62q-25 0 -51 6.5t-57 30.5t-45 63q-79 -114 -270 -114q-49 0 -90 7t-82.5 27t-69.5 52.5t-46 87.5t-18 129q0 164 96.5 253t268.5 89h162v110q0 67 -40 108.5t-114 41.5q-146 0 -297 -43v149q135 41 277 41q195 0 271.5 -79 t76.5 -259v-491q0 -66 90 -66v-143zM449 133q49 0 87 16t56.5 40.5t27.5 46.5t9 40v216h-172q-73 0 -124.5 -48t-51.5 -143q0 -92 41.5 -130t126.5 -38zM782 1219h-174v163h174v-163zM373 1219h-174v163h174v-163z" />
<glyph unicode="&#x1e2;" horiz-adv-x="1531" d="M1215 1571h-522v143h522v-143zM1409 0h-610l-41 362h-408l-117 -362h-182l490 1434h827v-150h-547l56 -469h481v-149h-463l61 -516h453v-150zM655 1284l-256 -768h340z" />
<glyph unicode="&#x1e3;" horiz-adv-x="1454" d="M989 1161h-522v144h522v-144zM1331 471h-534q1 -105 14 -174t38.5 -104t55 -47.5t72.5 -12.5q27 0 56.5 2t51 4.5t50.5 7.5t43 8t41 8.5t32 6.5v-150q-125 -34 -254 -34q-114 0 -187.5 32t-115.5 115q-78 -147 -286 -147q-49 0 -90 7t-82.5 27t-69.5 52.5t-46 87.5 t-18 129q0 157 96 239t269 82h162v131q0 65 -40.5 107.5t-113.5 42.5q-132 0 -297 -47v149q149 45 277 45q213 0 284 -108q91 108 262 108q330 0 330 -434v-133zM449 133q47 0 83 14.5t55.5 37.5t29.5 44.5t12 40.5v201h-172q-75 0 -125.5 -40.5t-50.5 -129.5 q0 -92 41.5 -130t126.5 -38zM997 893q-98 0 -142.5 -62t-53.5 -221h360v35q0 122 -38.5 185t-125.5 63z" />
<glyph unicode="&#x1e6;" d="M288 1847h198l123 -172l123 172h197l-230 -276h-180zM881 754v-734q-185 -34 -322 -34q-98 0 -165 20t-119.5 69t-82 136t-44.5 215t-15 313q0 151 12 262.5t39.5 190t64 128.5t93 78.5t118.5 39t148 10.5q107 0 230 -29v-147q-140 26 -267 26q-57 0 -94.5 -12t-71 -46.5 t-51.5 -98.5t-28.5 -166t-10.5 -250q0 -129 6 -223t19 -159.5t30.5 -106t46 -63t58.5 -30.5t74 -8q63 0 162 15v454h-183v150h353z" />
<glyph unicode="&#x1e7;" horiz-adv-x="1067" d="M228 1438h199l123 -172l123 172h196l-229 -277h-180zM911 666q0 -174 -101.5 -259t-311.5 -85q-78 0 -136 12q-20 -45 -20 -88q0 -28 10 -58q196 17 256 17q80 0 137.5 -12.5t105.5 -45t72.5 -94t24.5 -153.5q0 -99 -52 -165.5t-136.5 -95t-198.5 -28.5q-72 0 -200.5 13 t-190.5 24v147q202 -35 408 -35q98 0 145 38.5t47 101.5q0 80 -37.5 115.5t-134.5 35.5q-56 0 -166 -7t-172 -15q-35 32 -60.5 88.5t-25.5 103.5q0 111 55 172q-106 80 -106 289q0 86 23 150t61 103t94.5 62.5t115.5 32t132 8.5q90 0 160 -28l297 14v-154l-142 7 q47 -86 47 -211zM737 682q0 211 -209 211q-129 0 -180 -52.5t-51 -174.5q0 -97 45 -150t156 -53q55 0 95 8.5t74.5 31.5t52 67.5t17.5 111.5z" />
<glyph unicode="&#x1e8;" horiz-adv-x="1007" d="M229 1847h199l123 -172l123 172h196l-229 -276h-180zM946 0h-201l-319 657l-74 -122v-535h-178v1434h178v-629l383 629h191l-389 -627z" />
<glyph unicode="&#x1e9;" horiz-adv-x="950" d="M-70 1833h199l123 -172l123 172h196l-229 -277h-180zM879 0h-203l-277 510l-61 -72v-438h-174v1434h174v-779l313 369h213l-346 -395z" />
<glyph unicode="&#x1ea;" horiz-adv-x="1122" d="M807 723q0 228 -24 351t-75.5 173.5t-146.5 50.5t-146.5 -50.5t-75.5 -173.5t-24 -351q0 -223 23.5 -349.5t76.5 -182.5t146 -56t146 56t76.5 182.5t23.5 349.5zM767 -336v-133q-78 -20 -154 -20q-131 0 -182 49t-51 176q0 66 30 135t71 120q-81 11 -140.5 48t-99.5 96.5 t-64 149t-34 197.5t-10 251q0 150 12 260t41 199t78 143.5t122.5 83.5t174.5 29t174.5 -29t122.5 -83.5t78 -143.5t41 -199t12 -260q0 -146 -10.5 -255.5t-35.5 -200t-67 -149.5t-104.5 -94.5t-148.5 -44.5q-36 -59 -58.5 -131t-22.5 -120q0 -52 21 -70t69 -18q49 0 135 14z " />
<glyph unicode="&#x1eb;" horiz-adv-x="1044" d="M733 502q0 221 -45 307t-166 86t-166 -86t-45 -307q0 -201 48 -287t163 -86t163 86t48 287zM728 -336v-133q-78 -20 -154 -20q-131 0 -182 49t-51 176q0 65 30 134t71 120q-105 13 -171 66.5t-102 170.5t-36 305q0 261 94.5 383.5t294.5 122.5t294.5 -122.5t94.5 -383.5 q0 -146 -20.5 -248t-63 -165t-101.5 -93.5t-142 -37.5q-36 -59 -58.5 -130.5t-22.5 -119.5q0 -52 21 -70t69 -18q49 0 135 14z" />
<glyph unicode="&#x1ec;" horiz-adv-x="1122" d="M822 1571h-522v143h522v-143zM807 723q0 228 -24 351t-75.5 173.5t-146.5 50.5t-146.5 -50.5t-75.5 -173.5t-24 -351q0 -223 23.5 -349.5t76.5 -182.5t146 -56t146 56t76.5 182.5t23.5 349.5zM767 -336v-133q-78 -20 -154 -20q-131 0 -182 49t-51 176q0 66 30 135t71 120 q-81 11 -140.5 48t-99.5 96.5t-64 149t-34 197.5t-10 251q0 150 12 260t41 199t78 143.5t122.5 83.5t174.5 29t174.5 -29t122.5 -83.5t78 -143.5t41 -199t12 -260q0 -146 -10.5 -255.5t-35.5 -200t-67 -149.5t-104.5 -94.5t-148.5 -44.5q-36 -59 -58.5 -131t-22.5 -120 q0 -52 21 -70t69 -18q49 0 135 14z" />
<glyph unicode="&#x1ed;" horiz-adv-x="1044" d="M783 1161h-522v144h522v-144zM733 502q0 221 -45 307t-166 86t-166 -86t-45 -307q0 -201 48 -287t163 -86t163 86t48 287zM728 -336v-133q-78 -20 -154 -20q-131 0 -182 49t-51 176q0 65 30 134t71 120q-105 13 -171 66.5t-102 170.5t-36 305q0 261 94.5 383.5 t294.5 122.5t294.5 -122.5t94.5 -383.5q0 -146 -20.5 -248t-63 -165t-101.5 -93.5t-142 -37.5q-36 -59 -58.5 -130.5t-22.5 -119.5q0 -52 21 -70t69 -18q49 0 135 14z" />
<glyph unicode="&#x1f0;" horiz-adv-x="501" d="M-71 1438h199l123 -172l123 172h196l-229 -277h-180zM338 1024v-1112q0 -121 -65.5 -195.5t-188.5 -74.5q-86 0 -178 10v145q86 -8 151 -8q51 0 79 29.5t28 83.5v1122h174z" />
<glyph unicode="&#x1f4;" d="M691 1571h-166l213 276h224zM881 754v-734q-185 -34 -322 -34q-98 0 -165 20t-119.5 69t-82 136t-44.5 215t-15 313q0 151 12 262.5t39.5 190t64 128.5t93 78.5t118.5 39t148 10.5q107 0 230 -29v-147q-140 26 -267 26q-57 0 -94.5 -12t-71 -46.5t-51.5 -98.5t-28.5 -166 t-10.5 -250q0 -129 6 -223t19 -159.5t30.5 -106t46 -63t58.5 -30.5t74 -8q63 0 162 15v454h-183v150h353z" />
<glyph unicode="&#x1f5;" horiz-adv-x="1067" d="M632 1161h-166l213 277h223zM911 666q0 -174 -101.5 -259t-311.5 -85q-78 0 -136 12q-20 -45 -20 -88q0 -28 10 -58q196 17 256 17q80 0 137.5 -12.5t105.5 -45t72.5 -94t24.5 -153.5q0 -99 -52 -165.5t-136.5 -95t-198.5 -28.5q-72 0 -200.5 13t-190.5 24v147 q202 -35 408 -35q98 0 145 38.5t47 101.5q0 80 -37.5 115.5t-134.5 35.5q-56 0 -166 -7t-172 -15q-35 32 -60.5 88.5t-25.5 103.5q0 111 55 172q-106 80 -106 289q0 86 23 150t61 103t94.5 62.5t115.5 32t132 8.5q90 0 160 -28l297 14v-154l-142 7q47 -86 47 -211zM737 682 q0 211 -209 211q-129 0 -180 -52.5t-51 -174.5q0 -97 45 -150t156 -53q55 0 95 8.5t74.5 31.5t52 67.5t17.5 111.5z" />
<glyph unicode="&#x1f8;" horiz-adv-x="1120" d="M643 1571h-166l-270 276h223zM946 0h-293l-313 1282v-1282h-166v1434h291l315 -1282v1282h166v-1434z" />
<glyph unicode="&#x1f9;" horiz-adv-x="1036" d="M606 1161h-166l-270 277h223zM338 0h-174v1024h143l15 -92q100 106 251 106q171 0 240.5 -85t69.5 -277v-676h-174v696q0 104 -34 149.5t-132 45.5q-83 0 -144 -57t-61 -117v-717z" />
<glyph unicode="&#x1fa;" d="M595 1874h-166l213 276h223zM709 1542q0 -96 -64 -160l328 -1382h-182l-78 362h-400l-80 -362h-182l334 1380q-66 57 -66 162q0 91 52.5 150t140.5 59q91 0 144 -57.5t53 -151.5zM680 516l-168 782l-166 -782h334zM590 1544q0 101 -78 101q-41 0 -58.5 -29t-17.5 -72 q0 -40 18 -70t58 -30q46 0 62 27t16 73z" />
<glyph unicode="&#x1fb;" horiz-adv-x="985" d="M552 1653h-166l213 276h223zM547 1323q0 100 -78 100q-41 0 -58.5 -28.5t-17.5 -71.5q0 -40 18 -70t58 -30q46 0 62 27t16 73zM666 1321q0 -91 -54.5 -150t-142.5 -59q-87 0 -140 59.5t-53 149.5q0 91 52.5 150t140.5 59q91 0 144 -57.5t53 -151.5zM893 0h-62 q-25 0 -51 6.5t-57 30.5t-45 63q-79 -114 -270 -114q-49 0 -90 7t-82.5 27t-69.5 52.5t-46 87.5t-18 129q0 164 96.5 253t268.5 89h162v110q0 67 -40 108.5t-114 41.5q-146 0 -297 -43v149q135 41 277 41q195 0 271.5 -79t76.5 -259v-491q0 -66 90 -66v-143zM449 133 q49 0 87 16t56.5 40.5t27.5 46.5t9 40v216h-172q-73 0 -124.5 -48t-51.5 -143q0 -92 41.5 -130t126.5 -38z" />
<glyph unicode="&#x1fc;" horiz-adv-x="1531" d="M1037 1571h-166l213 276h224zM1409 0h-610l-41 362h-408l-117 -362h-182l490 1434h827v-150h-547l56 -469h481v-149h-463l61 -516h453v-150zM655 1284l-256 -768h340z" />
<glyph unicode="&#x1fd;" horiz-adv-x="1454" d="M811 1161h-166l213 277h223zM1331 471h-534q1 -105 14 -174t38.5 -104t55 -47.5t72.5 -12.5q27 0 56.5 2t51 4.5t50.5 7.5t43 8t41 8.5t32 6.5v-150q-125 -34 -254 -34q-114 0 -187.5 32t-115.5 115q-78 -147 -286 -147q-49 0 -90 7t-82.5 27t-69.5 52.5t-46 87.5 t-18 129q0 157 96 239t269 82h162v131q0 65 -40.5 107.5t-113.5 42.5q-132 0 -297 -47v149q149 45 277 45q213 0 284 -108q91 108 262 108q330 0 330 -434v-133zM449 133q47 0 83 14.5t55.5 37.5t29.5 44.5t12 40.5v201h-172q-75 0 -125.5 -40.5t-50.5 -129.5 q0 -92 41.5 -130t126.5 -38zM997 893q-98 0 -142.5 -62t-53.5 -221h360v35q0 122 -38.5 185t-125.5 63z" />
<glyph unicode="&#x1fe;" horiz-adv-x="1122" d="M644 1743h-166l213 276h223zM989 733q0 -157 -12 -271.5t-41 -207.5t-78 -150.5t-122.5 -87.5t-174.5 -30q-63 0 -135 14l-55 -186h-156l78 260q-87 82 -123.5 241.5t-36.5 417.5q0 150 12 260t41 199t78 143.5t122.5 83.5t174.5 29q82 0 137 -16l58 188h155l-77 -260 q85 -79 120 -231t35 -396zM315 723q0 -302 43 -430l295 989q-43 16 -92 16q-95 0 -146.5 -50.5t-75.5 -173.5t-24 -351zM807 723q0 289 -39 416l-297 -989q41 -15 90 -15q93 0 146 56t76.5 182.5t23.5 349.5z" />
<glyph unicode="&#x1ff;" horiz-adv-x="1044" d="M605 1329h-166l213 277h224zM911 532q0 -159 -24.5 -266.5t-75.5 -168.5t-120 -86t-169 -25q-48 0 -92 6l-57 -174h-160l76 227q-78 55 -117 172t-39 315q0 261 94.5 383.5t294.5 122.5q55 0 94 -8l60 176h158l-78 -233q155 -113 155 -441zM311 502q0 -186 39 -271 l219 660q-28 4 -47 4q-121 0 -166 -86t-45 -307zM733 502q0 205 -37 291l-219 -662q14 -2 45 -2q115 0 163 86t48 287z" />
<glyph unicode="&#x202;" d="M640 1571q-15 141 -125 141q-115 0 -123 -141h-168q42 266 291 266t291 -266h-166zM680 516l-168 782l-166 -782h334zM973 0h-182l-78 362h-400l-80 -362h-182l346 1434h236z" />
<glyph unicode="&#x203;" horiz-adv-x="985" d="M580 1161q-15 142 -125 142q-115 0 -123 -142h-168q42 266 291 266q248 0 290 -266h-165zM893 0h-62q-25 0 -51 6.5t-57 30.5t-45 63q-79 -114 -270 -114q-49 0 -90 7t-82.5 27t-69.5 52.5t-46 87.5t-18 129q0 164 96.5 253t268.5 89h162v110q0 67 -40 108.5t-114 41.5 q-146 0 -297 -43v149q135 41 277 41q195 0 271.5 -79t76.5 -259v-491q0 -66 90 -66v-143zM449 133q49 0 87 16t56.5 40.5t27.5 46.5t9 40v216h-172q-73 0 -124.5 -48t-51.5 -143q0 -92 41.5 -130t126.5 -38z" />
<glyph unicode="&#x206;" horiz-adv-x="968" d="M635 1571q-15 141 -125 141q-115 0 -123 -141h-168q42 266 291 266t291 -266h-166zM846 0h-672v1434h672v-150h-494v-469h443v-149h-443v-516h494v-150z" />
<glyph unicode="&#x207;" horiz-adv-x="958" d="M631 1161q-15 142 -125 142q-115 0 -123 -142h-168q42 266 291 266t291 -266h-166zM836 451h-529q2 -99 14.5 -163.5t37 -97.5t52.5 -45t70 -12q131 0 275 33v-148q-49 -13 -123.5 -22.5t-130.5 -9.5q-77 0 -129.5 10.5t-101.5 43t-77 90t-44.5 152.5t-16.5 230 q0 278 92 402t281 124q330 0 330 -434v-153zM502 893q-100 0 -143 -64.5t-50 -238.5h357v55q0 122 -38.5 185t-125.5 63z" />
<glyph unicode="&#x20a;" horiz-adv-x="649" d="M450 1571q-15 141 -125 141q-115 0 -123 -141h-168q42 266 291 266q248 0 290 -266h-165zM557 0h-465v150h144v1134h-144v150h465v-150h-143v-1134h143v-150z" />
<glyph unicode="&#x20b;" horiz-adv-x="501" d="M375 1161q-15 142 -125 142q-115 0 -123 -142h-168q42 266 291 266t291 -266h-166zM338 0h-174v1024h174v-1024z" />
<glyph unicode="&#x20e;" horiz-adv-x="1122" d="M686 1571q-15 141 -125 141q-115 0 -123 -141h-168q42 266 291 266t291 -266h-166zM807 723q0 228 -24 351t-75.5 173.5t-146.5 50.5t-146.5 -50.5t-75.5 -173.5t-24 -351q0 -223 23.5 -349.5t76.5 -182.5t146 -56t146 56t76.5 182.5t23.5 349.5zM989 733 q0 -157 -12 -271.5t-41 -207.5t-78 -150.5t-122.5 -87.5t-174.5 -30t-174.5 30t-122.5 87.5t-78 150.5t-41 207.5t-12 271.5q0 150 12 260t41 199t78 143.5t122.5 83.5t174.5 29t174.5 -29t122.5 -83.5t78 -143.5t41 -199t12 -260z" />
<glyph unicode="&#x20f;" horiz-adv-x="1044" d="M647 1161q-15 142 -125 142q-115 0 -123 -142h-168q42 266 291 266t291 -266h-166zM911 532q0 -159 -24.5 -266.5t-75.5 -168.5t-120 -86t-169 -25t-169 25t-120 86t-75.5 168.5t-24.5 266.5q0 261 94.5 383.5t294.5 122.5t294.5 -122.5t94.5 -383.5zM733 502 q0 221 -45 307t-166 86t-166 -86t-45 -307q0 -201 48 -287t163 -86t163 86t48 287z" />
<glyph unicode="&#x212;" horiz-adv-x="1054" d="M645 1571q-15 141 -125 141q-115 0 -123 -141h-168q42 266 291 266t291 -266h-166zM918 1030q0 -326 -205 -407l280 -623h-196l-262 594h-183v-594h-178v1434q176 14 346 14q114 0 193 -29t123 -86t63 -130.5t19 -172.5zM735 1016q0 153 -42 218.5t-148 65.5 q-50 0 -98.5 -3t-71.5 -6l-23 -3v-545h193q46 0 78.5 11.5t59 41t39.5 84t13 136.5z" />
<glyph unicode="&#x213;" horiz-adv-x="692" d="M527 1161q-15 142 -125 142q-114 0 -122 -142h-168q42 266 290 266q249 0 291 -266h-166zM338 0h-174v1024h143l12 -104q79 118 213 118q67 0 109 -10v-182q-79 18 -123 18q-48 0 -84.5 -20.5t-56.5 -55t-29.5 -74t-9.5 -83.5v-631z" />
<glyph unicode="&#x216;" horiz-adv-x="1095" d="M673 1571q-15 141 -125 141q-115 0 -123 -141h-168q42 266 291 266t291 -266h-166zM932 1434v-1055q0 -201 -100 -297t-283 -96q-184 0 -284.5 96t-100.5 297v1055h178v-1094q0 -103 55.5 -154t151.5 -51t150.5 50.5t54.5 154.5v1094h178z" />
<glyph unicode="&#x217;" horiz-adv-x="1005" d="M623 1161q-15 142 -125 142q-115 0 -123 -142h-168q42 266 291 266q248 0 290 -266h-165zM842 0h-144l-14 84q-89 -98 -235 -98q-165 0 -230 87.5t-65 282.5v668h174v-688q0 -106 29.5 -154.5t117.5 -48.5q79 0 134.5 54t58.5 114v723h174v-1024z" />
<glyph unicode="&#x218;" horiz-adv-x="888" d="M518 -205l-147 -287h-140l82 287v193q-102 9 -176 28v150q122 -31 258 -31q105 0 154 62t49 190q0 143 -39 202t-127 77q-172 36 -242.5 121.5t-70.5 265.5q0 395 403 395q103 0 217 -31v-149q-131 30 -237 30q-85 0 -143 -55t-58 -168q0 -125 31 -172t127 -67 q80 -17 134.5 -42.5t99 -73t66 -125t21.5 -187.5q0 -192 -66.5 -287.5t-195.5 -122.5v-203z" />
<glyph unicode="&#x219;" horiz-adv-x="823" d="M508 -205l-148 -287h-139l82 287v193q-91 7 -172 30v150q168 -33 260 -33q74 0 111 45.5t37 106.5q0 75 -27 109.5t-102 47.5q-153 28 -220 98t-67 187q0 158 94 233.5t250 75.5q30 0 58.5 -2.5t54 -7t41 -8t38.5 -9.5t27 -7v-150q-12 3 -48.5 12t-55.5 13t-55.5 8 t-75.5 4q-46 0 -77 -12.5t-46 -35.5t-21 -47.5t-6 -56.5q0 -57 32 -89.5t99 -43.5q157 -26 223 -99.5t66 -209.5q0 -246 -213 -297v-205z" />
<glyph unicode="&#x21a;" horiz-adv-x="870" d="M524 -205l-147 -287h-139l81 287v205h27v1278h-315v156h809v-156h-316v-1278v-205z" />
<glyph unicode="&#x21b;" horiz-adv-x="657" d="M516 -205l-147 -287h-140l82 287v205h18q-73 26 -109 93.5t-36 162.5v614h-133v154h133v246h174v-246h238v-154h-238v-624q0 -17 4.5 -34.5t14.5 -36.5t32 -30.5t52 -11.5q54 0 135 21v-144q-46 -12 -80 -17v-198z" />
<glyph unicode="&#x21e;" horiz-adv-x="1126" d="M243 1847h198l123 -172l123 172h197l-230 -276h-180zM952 0h-178v659h-422v-659h-178v1434h178v-623h422v623h178v-1434z" />
<glyph unicode="&#x21f;" horiz-adv-x="1036" d="M203 1833h198l123 -172l123 172h197l-230 -277h-180zM338 0h-174v1434h174v-486q99 90 235 90q171 0 240.5 -85t69.5 -277v-676h-174v696q0 104 -34 149.5t-132 45.5q-83 0 -144 -57t-61 -117v-717z" />
<glyph unicode="&#x226;" d="M602 1571h-174v174h174v-174zM680 516l-168 782l-166 -782h334zM973 0h-182l-78 362h-400l-80 -362h-182l346 1434h236z" />
<glyph unicode="&#x227;" horiz-adv-x="985" d="M542 1161h-174v174h174v-174zM893 0h-62q-25 0 -51 6.5t-57 30.5t-45 63q-79 -114 -270 -114q-49 0 -90 7t-82.5 27t-69.5 52.5t-46 87.5t-18 129q0 164 96.5 253t268.5 89h162v110q0 67 -40 108.5t-114 41.5q-146 0 -297 -43v149q135 41 277 41q195 0 271.5 -79 t76.5 -259v-491q0 -66 90 -66v-143zM449 133q49 0 87 16t56.5 40.5t27.5 46.5t9 40v216h-172q-73 0 -124.5 -48t-51.5 -143q0 -92 41.5 -130t126.5 -38z" />
<glyph unicode="&#x228;" horiz-adv-x="968" d="M374 -481v127q56 -12 110 -12q44 0 64 13.5t20 50.5q0 33 -34.5 47t-131.5 14l39 241h-267v1434h672v-150h-494v-469h443v-149h-443v-516h494v-150h-272l-20 -141q91 -10 130.5 -49.5t39.5 -118.5q0 -94 -58.5 -140t-162.5 -46q-54 0 -129 14z" />
<glyph unicode="&#x229;" horiz-adv-x="958" d="M366 -495v127q56 -12 110 -12q44 0 64 13.5t20 49.5q0 33 -34.5 47.5t-131.5 14.5l39 243q-61 5 -105.5 21t-83 52t-62 94t-36.5 147t-13 210q0 278 92 402t281 124q330 0 330 -434v-153h-529q2 -99 14.5 -163.5t37 -97.5t52.5 -45t70 -12q131 0 275 33v-148 q-72 -21 -190 -30l-20 -143q91 -10 130.5 -49.5t39.5 -118.5q0 -94 -58.5 -140t-162.5 -46q-54 0 -129 14zM502 893q-100 0 -143 -64.5t-50 -238.5h357v55q0 122 -38.5 185t-125.5 63z" />
<glyph unicode="&#x22a;" horiz-adv-x="1122" d="M823 1792h-522v143h522v-143zM854 1505h-174v164h174v-164zM444 1505h-174v164h174v-164zM807 723q0 228 -24 351t-75.5 173.5t-146.5 50.5t-146.5 -50.5t-75.5 -173.5t-24 -351q0 -223 23.5 -349.5t76.5 -182.5t146 -56t146 56t76.5 182.5t23.5 349.5zM989 733 q0 -157 -12 -271.5t-41 -207.5t-78 -150.5t-122.5 -87.5t-174.5 -30t-174.5 30t-122.5 87.5t-78 150.5t-41 207.5t-12 271.5q0 150 12 260t41 199t78 143.5t122.5 83.5t174.5 29t174.5 -29t122.5 -83.5t78 -143.5t41 -199t12 -260z" />
<glyph unicode="&#x22b;" horiz-adv-x="1044" d="M784 1505h-522v144h522v-144zM911 532q0 -159 -24.5 -266.5t-75.5 -168.5t-120 -86t-169 -25t-169 25t-120 86t-75.5 168.5t-24.5 266.5q0 261 94.5 383.5t294.5 122.5t294.5 -122.5t94.5 -383.5zM733 502q0 221 -45 307t-166 86t-166 -86t-45 -307q0 -201 48 -287 t163 -86t163 86t48 287zM815 1219h-174v163h174v-163zM406 1219h-175v163h175v-163z" />
<glyph unicode="&#x22c;" horiz-adv-x="1122" d="M720 1843h-522v144h522v-144zM807 723q0 228 -24 351t-75.5 173.5t-146.5 50.5t-146.5 -50.5t-75.5 -173.5t-24 -351q0 -223 23.5 -349.5t76.5 -182.5t146 -56t146 56t76.5 182.5t23.5 349.5zM989 733q0 -157 -12 -271.5t-41 -207.5t-78 -150.5t-122.5 -87.5t-174.5 -30 t-174.5 30t-122.5 87.5t-78 150.5t-41 207.5t-12 271.5q0 150 12 260t41 199t78 143.5t122.5 83.5t174.5 29t174.5 -29t122.5 -83.5t78 -143.5t41 -199t12 -260zM283 1503v150q80 67 176 67q50 0 122.5 -40t110.5 -40q50 0 84.5 17t79.5 57v-149q-71 -68 -176 -68 q-43 0 -83 20t-77.5 40t-73.5 20q-49 0 -86.5 -19.5t-76.5 -54.5z" />
<glyph unicode="&#x22d;" horiz-adv-x="1044" d="M683 1556h-522v144h522v-144zM911 532q0 -159 -24.5 -266.5t-75.5 -168.5t-120 -86t-169 -25t-169 25t-120 86t-75.5 168.5t-24.5 266.5q0 261 94.5 383.5t294.5 122.5t294.5 -122.5t94.5 -383.5zM733 502q0 221 -45 307t-166 86t-166 -86t-45 -307q0 -201 48 -287 t163 -86t163 86t48 287zM246 1217v149q81 68 176 68q50 0 122.5 -40t110.5 -40q50 0 85 17t79 56v-149q-71 -68 -176 -68q-43 0 -83 20t-77 40t-73 20q-84 0 -164 -73z" />
<glyph unicode="&#x22e;" horiz-adv-x="1122" d="M648 1571h-174v174h174v-174zM807 723q0 228 -24 351t-75.5 173.5t-146.5 50.5t-146.5 -50.5t-75.5 -173.5t-24 -351q0 -223 23.5 -349.5t76.5 -182.5t146 -56t146 56t76.5 182.5t23.5 349.5zM989 733q0 -157 -12 -271.5t-41 -207.5t-78 -150.5t-122.5 -87.5t-174.5 -30 t-174.5 30t-122.5 87.5t-78 150.5t-41 207.5t-12 271.5q0 150 12 260t41 199t78 143.5t122.5 83.5t174.5 29t174.5 -29t122.5 -83.5t78 -143.5t41 -199t12 -260z" />
<glyph unicode="&#x22f;" horiz-adv-x="1044" d="M609 1161h-174v174h174v-174zM911 532q0 -159 -24.5 -266.5t-75.5 -168.5t-120 -86t-169 -25t-169 25t-120 86t-75.5 168.5t-24.5 266.5q0 261 94.5 383.5t294.5 122.5t294.5 -122.5t94.5 -383.5zM733 502q0 221 -45 307t-166 86t-166 -86t-45 -307q0 -201 48 -287 t163 -86t163 86t48 287z" />
<glyph unicode="&#x230;" horiz-adv-x="1122" d="M822 1868h-522v143h522v-143zM648 1571h-174v174h174v-174zM807 723q0 228 -24 351t-75.5 173.5t-146.5 50.5t-146.5 -50.5t-75.5 -173.5t-24 -351q0 -223 23.5 -349.5t76.5 -182.5t146 -56t146 56t76.5 182.5t23.5 349.5zM989 733q0 -157 -12 -271.5t-41 -207.5 t-78 -150.5t-122.5 -87.5t-174.5 -30t-174.5 30t-122.5 87.5t-78 150.5t-41 207.5t-12 271.5q0 150 12 260t41 199t78 143.5t122.5 83.5t174.5 29t174.5 -29t122.5 -83.5t78 -143.5t41 -199t12 -260z" />
<glyph unicode="&#x231;" horiz-adv-x="1044" d="M783 1458h-522v144h522v-144zM609 1161h-174v174h174v-174zM911 532q0 -159 -24.5 -266.5t-75.5 -168.5t-120 -86t-169 -25t-169 25t-120 86t-75.5 168.5t-24.5 266.5q0 261 94.5 383.5t294.5 122.5t294.5 -122.5t94.5 -383.5zM733 502q0 221 -45 307t-166 86t-166 -86 t-45 -307q0 -201 48 -287t163 -86t163 86t48 287z" />
<glyph unicode="&#x232;" horiz-adv-x="1005" d="M764 1571h-522v143h522v-143zM965 1434l-373 -768v-666h-184v666l-367 768h197l270 -596l270 596h187z" />
<glyph unicode="&#x233;" horiz-adv-x="948" d="M735 1161h-522v144h522v-144zM877 1024l-297 -1114q-18 -69 -35 -111t-45 -81.5t-71 -57.5t-103 -18q-42 0 -117 12v149q58 -8 106 -8q57 0 82 92l33 113h-41l-317 1024h188l238 -846l200 846h179z" />
<glyph unicode="&#x237;" horiz-adv-x="501" d="M338 1024v-1112q0 -121 -65.5 -195.5t-188.5 -74.5q-86 0 -178 10v145q86 -8 151 -8q51 0 79 29.5t28 83.5v1122h174z" />
<glyph unicode="&#x2c6;" horiz-adv-x="784" d="M713 1188h-199l-123 172l-123 -172h-196l229 276h180z" />
<glyph unicode="&#x2c7;" horiz-adv-x="784" d="M72 1462h198l123 -172l123 172h197l-230 -276h-180z" />
<glyph unicode="&#x2c9;" horiz-adv-x="665" d="M594 1239h-522v143h522v-143z" />
<glyph unicode="&#x2d8;" horiz-adv-x="724" d="M487 1464h166q-42 -266 -291 -266q-248 0 -290 266h168q8 -141 122 -141q110 0 125 141z" />
<glyph unicode="&#x2d9;" horiz-adv-x="335" d="M246 1260h-174v174h174v-174z" />
<glyph unicode="&#x2da;" horiz-adv-x="532" d="M342 1323q0 100 -78 100q-41 0 -58.5 -28.5t-17.5 -71.5q0 -40 18 -70t58 -30q46 0 62 27t16 73zM461 1321q0 -91 -54.5 -150t-142.5 -59q-87 0 -139.5 59.5t-52.5 149.5q0 91 52 150t140 59q91 0 144 -57.5t53 -151.5z" />
<glyph unicode="&#x2db;" horiz-adv-x="651" d="M520 -215v-133q-82 -21 -153 -21q-131 0 -182.5 49.5t-51.5 176.5q0 69 34 143t77 123h141q-39 -60 -64.5 -136.5t-25.5 -127.5q0 -52 21 -70t69 -18q49 0 135 14z" />
<glyph unicode="&#x2dc;" horiz-adv-x="716" d="M72 1217v149q81 68 176 68q50 0 122.5 -40t110.5 -40q50 0 85 17t79 56v-149q-71 -68 -176 -68q-43 0 -83 20t-77 40t-73 20q-84 0 -164 -73z" />
<glyph unicode="&#x2dd;" horiz-adv-x="948" d="M528 1526l-301 -301h-155l211 301h245zM877 1526l-302 -301h-155l211 301h246z" />
<glyph unicode="&#x3bc;" horiz-adv-x="1015" d="M338 -348h-174v1372h174v-717q2 -90 33 -132t114 -42q79 0 134.5 54t58.5 114v723h174v-1024h-143l-15 84q-89 -98 -235 -98q-66 0 -121 22v-356z" />
<glyph unicode="&#x3c0;" horiz-adv-x="1134" d="M1042 874h-184v-634q0 -55 14.5 -76t53.5 -21q10 0 21 2t21.5 5.5t12.5 3.5v-144q-68 -14 -123 -14q-33 0 -61.5 11t-55 35.5t-42 72.5t-15.5 114v645h-256v-874h-174v874h-162v150h950v-150z" />
<glyph unicode="&#x1e00;" d="M588 -330q0 101 -78 101q-41 0 -58.5 -29t-17.5 -72q0 -40 18 -70t58 -30q46 0 62 27t16 73zM707 -332q0 -91 -54.5 -150t-142.5 -59q-87 0 -140 59.5t-53 149.5q0 91 52.5 150t140.5 59q91 0 144 -57.5t53 -151.5zM680 516l-168 782l-166 -782h334zM973 0h-182l-78 362 h-400l-80 -362h-182l346 1434h236z" />
<glyph unicode="&#x1e01;" horiz-adv-x="985" d="M483 -344q0 100 -77 100q-41 0 -58.5 -28.5t-17.5 -71.5q0 -40 18 -70t58 -30q46 0 61.5 26.5t15.5 73.5zM602 -346q0 -91 -54 -150t-142 -59q-87 0 -140 59.5t-53 149.5q0 91 52.5 150t140.5 59q91 0 143.5 -57.5t52.5 -151.5zM893 0h-62q-25 0 -51 6.5t-57 30.5t-45 63 q-79 -114 -270 -114q-49 0 -90 7t-82.5 27t-69.5 52.5t-46 87.5t-18 129q0 164 96.5 253t268.5 89h162v110q0 67 -40 108.5t-114 41.5q-146 0 -297 -43v149q135 41 277 41q195 0 271.5 -79t76.5 -259v-491q0 -66 90 -66v-143zM449 133q49 0 87 16t56.5 40.5t27.5 46.5t9 40 v216h-172q-73 0 -124.5 -48t-51.5 -143q0 -92 41.5 -130t126.5 -38z" />
<glyph unicode="&#x1e02;" horiz-adv-x="1048" d="M637 1571h-174v174h174v-174zM743 418q0 137 -45 199.5t-155 62.5h-191v-535q103 -10 189 -10q46 0 79 11t63 40t45 87t15 145zM713 1059q0 133 -39.5 187t-151.5 54q-44 0 -86.5 -3t-63.5 -6l-20 -3v-461h170q30 0 52 3t50 16.5t46 37t30.5 68.5t12.5 107zM926 432 q0 -126 -28 -214t-82.5 -138t-126 -72t-167.5 -22q-76 0 -163 3.5t-136 6.5l-49 4v1434q191 14 324 14q193 0 293 -88.5t100 -286.5q0 -119 -48 -199.5t-116 -109.5q199 -70 199 -332z" />
<glyph unicode="&#x1e03;" horiz-adv-x="1021" d="M613 1556h-174v175h174v-175zM889 578q0 -228 -42 -355t-135 -182t-259 -55q-52 0 -100 3t-68 5t-68 8.5t-53 7.5v1424h174v-486q96 90 227 90q175 0 249.5 -112t74.5 -348zM532 891q-81 0 -137.5 -56.5t-56.5 -117.5v-576q62 -8 135 -8q72 0 119 25.5t73 81.5t36 130.5 t10 186.5q0 192 -39.5 263t-139.5 71z" />
<glyph unicode="&#x1e04;" horiz-adv-x="1048" d="M609 -311h-174v174h174v-174zM743 418q0 137 -45 199.5t-155 62.5h-191v-535q103 -10 189 -10q46 0 79 11t63 40t45 87t15 145zM713 1059q0 133 -39.5 187t-151.5 54q-44 0 -86.5 -3t-63.5 -6l-20 -3v-461h170q30 0 52 3t50 16.5t46 37t30.5 68.5t12.5 107zM926 432 q0 -126 -28 -214t-82.5 -138t-126 -72t-167.5 -22q-76 0 -163 3.5t-136 6.5l-49 4v1434q191 14 324 14q193 0 293 -88.5t100 -286.5q0 -119 -48 -199.5t-116 -109.5q199 -70 199 -332z" />
<glyph unicode="&#x1e05;" horiz-adv-x="1021" d="M540 -311h-174v174h174v-174zM889 578q0 -228 -42 -355t-135 -182t-259 -55q-52 0 -100 3t-68 5t-68 8.5t-53 7.5v1424h174v-486q96 90 227 90q175 0 249.5 -112t74.5 -348zM532 891q-81 0 -137.5 -56.5t-56.5 -117.5v-576q62 -8 135 -8q72 0 119 25.5t73 81.5t36 130.5 t10 186.5q0 192 -39.5 263t-139.5 71z" />
<glyph unicode="&#x1e06;" horiz-adv-x="1048" d="M783 -281h-522v144h522v-144zM743 418q0 137 -45 199.5t-155 62.5h-191v-535q103 -10 189 -10q46 0 79 11t63 40t45 87t15 145zM713 1059q0 133 -39.5 187t-151.5 54q-44 0 -86.5 -3t-63.5 -6l-20 -3v-461h170q30 0 52 3t50 16.5t46 37t30.5 68.5t12.5 107zM926 432 q0 -126 -28 -214t-82.5 -138t-126 -72t-167.5 -22q-76 0 -163 3.5t-136 6.5l-49 4v1434q191 14 324 14q193 0 293 -88.5t100 -286.5q0 -119 -48 -199.5t-116 -109.5q199 -70 199 -332z" />
<glyph unicode="&#x1e07;" horiz-adv-x="1021" d="M714 -281h-523v144h523v-144zM889 578q0 -228 -42 -355t-135 -182t-259 -55q-52 0 -100 3t-68 5t-68 8.5t-53 7.5v1424h174v-486q96 90 227 90q175 0 249.5 -112t74.5 -348zM532 891q-81 0 -137.5 -56.5t-56.5 -117.5v-576q62 -8 135 -8q72 0 119 25.5t73 81.5t36 130.5 t10 186.5q0 192 -39.5 263t-139.5 71z" />
<glyph unicode="&#x1e08;" horiz-adv-x="866" d="M654 1571h-166l213 276h224zM369 -395v127q60 -13 110 -13q44 0 64 13.5t20 50.5q0 33 -34.5 47t-131.5 14l25 154q-104 22 -166 97.5t-92.5 231t-30.5 412.5q0 151 11 262.5t36.5 190t59 128.5t85.5 78.5t109 39t137 10.5q89 0 203 -29v-151q-111 26 -239 26 q-61 0 -98.5 -19.5t-67 -78.5t-42 -173t-12.5 -298q0 -190 13 -308.5t43.5 -178.5t67.5 -79.5t98 -19.5q105 0 237 31v-150q-37 -10 -104.5 -21.5t-114.5 -12.5l-6 -41q91 -10 130.5 -49.5t39.5 -118.5q0 -94 -59 -140.5t-162 -46.5q-48 0 -129 15z" />
<glyph unicode="&#x1e09;" horiz-adv-x="827" d="M572 1161h-165l213 277h223zM336 -395v127q60 -13 110 -13q44 0 64 13.5t20 50.5q0 33 -34 47t-131 14l22 150q-66 11 -111 40.5t-78.5 90t-49 161t-15.5 246.5q0 272 84.5 389t271.5 117q100 0 226 -30v-152q-138 29 -238 29q-61 0 -96.5 -35t-52.5 -120.5t-17 -237.5 q0 -90 8 -154.5t21 -102.5t35 -60t45.5 -29t56.5 -7q32 0 60.5 2t56 6t42.5 6.5t44 9t35 7.5v-152q-92 -26 -193 -32l-6 -41q91 -10 130.5 -49.5t39.5 -118.5q0 -94 -59 -140.5t-162 -46.5q-48 0 -129 15z" />
<glyph unicode="&#x1e0a;" horiz-adv-x="1077" d="M646 1571h-174v174h174v-174zM762 725q0 178 -15 295t-45 176t-65 80.5t-86 21.5l-199 -8v-1147q111 -8 197 -8q50 0 87.5 29.5t66.5 96.5t44 183.5t15 280.5zM944 739q0 -182 -17.5 -313t-49 -216t-84 -135t-115 -69.5t-148.5 -19.5q-71 0 -160 3.5t-142 6.5l-54 4v1434 q191 14 332 14q93 0 157.5 -15.5t121 -60t89.5 -123t51.5 -205t18.5 -305.5z" />
<glyph unicode="&#x1e0b;" horiz-adv-x="1032" d="M588 1556h-174v175h174v-175zM868 0h-143l-14 86q-97 -100 -244 -100q-188 0 -261 115t-73 366q0 302 106 436.5t341 134.5q52 0 114 -8v404h174v-1434zM500 133q88 0 141 55.5t53 118.5v576q-62 8 -135 8q-58 0 -100.5 -19.5t-71 -55t-45.5 -91.5t-24 -123t-7 -156 q0 -179 43.5 -246t145.5 -67z" />
<glyph unicode="&#x1e0c;" horiz-adv-x="1077" d="M617 -311h-174v174h174v-174zM762 725q0 178 -15 295t-45 176t-65 80.5t-86 21.5l-199 -8v-1147q111 -8 197 -8q50 0 87.5 29.5t66.5 96.5t44 183.5t15 280.5zM944 739q0 -182 -17.5 -313t-49 -216t-84 -135t-115 -69.5t-148.5 -19.5q-71 0 -160 3.5t-142 6.5l-54 4v1434 q191 14 332 14q93 0 157.5 -15.5t121 -60t89.5 -123t51.5 -205t18.5 -305.5z" />
<glyph unicode="&#x1e0d;" horiz-adv-x="1032" d="M554 -311h-174v174h174v-174zM868 0h-143l-14 86q-97 -100 -244 -100q-188 0 -261 115t-73 366q0 302 106 436.5t341 134.5q52 0 114 -8v404h174v-1434zM500 133q88 0 141 55.5t53 118.5v576q-62 8 -135 8q-58 0 -100.5 -19.5t-71 -55t-45.5 -91.5t-24 -123t-7 -156 q0 -179 43.5 -246t145.5 -67z" />
<glyph unicode="&#x1e0e;" horiz-adv-x="1077" d="M792 -281h-523v144h523v-144zM762 725q0 178 -15 295t-45 176t-65 80.5t-86 21.5l-199 -8v-1147q111 -8 197 -8q50 0 87.5 29.5t66.5 96.5t44 183.5t15 280.5zM944 739q0 -182 -17.5 -313t-49 -216t-84 -135t-115 -69.5t-148.5 -19.5q-71 0 -160 3.5t-142 6.5l-54 4v1434 q191 14 332 14q93 0 157.5 -15.5t121 -60t89.5 -123t51.5 -205t18.5 -305.5z" />
<glyph unicode="&#x1e0f;" horiz-adv-x="1032" d="M728 -281h-522v144h522v-144zM868 0h-143l-14 86q-97 -100 -244 -100q-188 0 -261 115t-73 366q0 302 106 436.5t341 134.5q52 0 114 -8v404h174v-1434zM500 133q88 0 141 55.5t53 118.5v576q-62 8 -135 8q-58 0 -100.5 -19.5t-71 -55t-45.5 -91.5t-24 -123t-7 -156 q0 -179 43.5 -246t145.5 -67z" />
<glyph unicode="&#x1e10;" horiz-adv-x="1077" d="M394 -495v127q55 -12 111 -12q44 0 64 13.5t20 49.5q0 33 -34.5 47.5t-131.5 14.5l38 241q-63 1 -135 4.5t-112 6.5l-40 3v1434q191 14 332 14q93 0 157.5 -15.5t121 -60t89.5 -123t51.5 -205t18.5 -305.5q0 -208 -21.5 -350t-67 -227t-107.5 -124.5t-153 -48.5l-21 -144 q91 -10 130.5 -49.5t39.5 -118.5q0 -94 -58.5 -140t-162.5 -46q-54 0 -129 14zM762 725q0 178 -15 295t-45 176t-65 80.5t-86 21.5l-199 -8v-1147q111 -8 197 -8q50 0 87.5 29.5t66.5 96.5t44 183.5t15 280.5z" />
<glyph unicode="&#x1e11;" horiz-adv-x="1032" d="M331 -495v127q55 -12 110 -12q44 0 64 13.5t20 49.5q0 33 -34.5 47.5t-131.5 14.5l39 245q-148 20 -206.5 135t-58.5 342q0 302 106 436.5t341 134.5q52 0 114 -8v404h174v-1434h-143l-14 86q-75 -78 -179 -95l-21 -146q91 -10 130.5 -49.5t39.5 -118.5q0 -94 -58.5 -140 t-162.5 -46q-54 0 -129 14zM500 133q88 0 141 55.5t53 118.5v576q-62 8 -135 8q-58 0 -100.5 -19.5t-71 -55t-45.5 -91.5t-24 -123t-7 -156q0 -179 43.5 -246t145.5 -67z" />
<glyph unicode="&#x1e12;" horiz-adv-x="1077" d="M851 -414h-199l-123 172l-122 -172h-197l229 277h181zM762 725q0 178 -15 295t-45 176t-65 80.5t-86 21.5l-199 -8v-1147q111 -8 197 -8q50 0 87.5 29.5t66.5 96.5t44 183.5t15 280.5zM944 739q0 -182 -17.5 -313t-49 -216t-84 -135t-115 -69.5t-148.5 -19.5 q-71 0 -160 3.5t-142 6.5l-54 4v1434q191 14 332 14q93 0 157.5 -15.5t121 -60t89.5 -123t51.5 -205t18.5 -305.5z" />
<glyph unicode="&#x1e13;" horiz-adv-x="1032" d="M787 -414h-198l-123 172l-123 -172h-197l230 277h180zM868 0h-143l-14 86q-97 -100 -244 -100q-188 0 -261 115t-73 366q0 302 106 436.5t341 134.5q52 0 114 -8v404h174v-1434zM500 133q88 0 141 55.5t53 118.5v576q-62 8 -135 8q-58 0 -100.5 -19.5t-71 -55 t-45.5 -91.5t-24 -123t-7 -156q0 -179 43.5 -246t145.5 -67z" />
<glyph unicode="&#x1e14;" horiz-adv-x="968" d="M593 1837h-166l-270 277h223zM771 1571h-522v143h522v-143zM846 0h-672v1434h672v-150h-494v-469h443v-149h-443v-516h494v-150z" />
<glyph unicode="&#x1e15;" horiz-adv-x="958" d="M589 1427h-166l-270 277h223zM767 1161h-522v144h522v-144zM836 451h-529q2 -99 14.5 -163.5t37 -97.5t52.5 -45t70 -12q131 0 275 33v-148q-49 -13 -123.5 -22.5t-130.5 -9.5q-77 0 -129.5 10.5t-101.5 43t-77 90t-44.5 152.5t-16.5 230q0 278 92 402t281 124 q330 0 330 -434v-153zM502 893q-100 0 -143 -64.5t-50 -238.5h357v55q0 122 -38.5 185t-125.5 63z" />
<glyph unicode="&#x1e16;" horiz-adv-x="968" d="M593 1837h-166l213 277h223zM771 1571h-522v143h522v-143zM846 0h-672v1434h672v-150h-494v-469h443v-149h-443v-516h494v-150z" />
<glyph unicode="&#x1e17;" horiz-adv-x="958" d="M589 1427h-166l213 277h223zM767 1161h-522v144h522v-144zM836 451h-529q2 -99 14.5 -163.5t37 -97.5t52.5 -45t70 -12q131 0 275 33v-148q-49 -13 -123.5 -22.5t-130.5 -9.5q-77 0 -129.5 10.5t-101.5 43t-77 90t-44.5 152.5t-16.5 230q0 278 92 402t281 124 q330 0 330 -434v-153zM502 893q-100 0 -143 -64.5t-50 -238.5h357v55q0 122 -38.5 185t-125.5 63z" />
<glyph unicode="&#x1e18;" horiz-adv-x="968" d="M830 -399h-198l-123 172l-123 -172h-197l230 276h180zM846 0h-672v1434h672v-150h-494v-469h443v-149h-443v-516h494v-150z" />
<glyph unicode="&#x1e19;" horiz-adv-x="958" d="M822 -414h-198l-123 172l-123 -172h-197l230 277h180zM836 451h-529q2 -99 14.5 -163.5t37 -97.5t52.5 -45t70 -12q131 0 275 33v-148q-49 -13 -123.5 -22.5t-130.5 -9.5q-77 0 -129.5 10.5t-101.5 43t-77 90t-44.5 152.5t-16.5 230q0 278 92 402t281 124q330 0 330 -434 v-153zM502 893q-100 0 -143 -64.5t-50 -238.5h357v55q0 122 -38.5 185t-125.5 63z" />
<glyph unicode="&#x1e1a;" horiz-adv-x="968" d="M223 -340v150q80 67 176 67q50 0 123 -40t111 -40q50 0 84.5 17t79.5 57v-150q-70 -67 -176 -67q-43 0 -83 20t-77.5 40t-73.5 20q-82 0 -164 -74zM846 0h-672v1434h672v-150h-494v-469h443v-149h-443v-516h494v-150z" />
<glyph unicode="&#x1e1b;" horiz-adv-x="958" d="M215 -354v149q81 68 176 68q50 0 123 -40t111 -40q50 0 84 17t79 57v-150q-70 -67 -176 -67q-43 0 -83 20t-77 39.5t-73 19.5q-84 0 -164 -73zM836 451h-529q2 -99 14.5 -163.5t37 -97.5t52.5 -45t70 -12q131 0 275 33v-148q-49 -13 -123.5 -22.5t-130.5 -9.5 q-77 0 -129.5 10.5t-101.5 43t-77 90t-44.5 152.5t-16.5 230q0 278 92 402t281 124q330 0 330 -434v-153zM502 893q-100 0 -143 -64.5t-50 -238.5h357v55q0 122 -38.5 185t-125.5 63z" />
<glyph unicode="&#x1e1c;" horiz-adv-x="968" d="M635 1837h166q-42 -266 -291 -266t-291 266h168q8 -141 123 -141q110 0 125 141zM374 -481v127q56 -12 110 -12q44 0 64 13.5t20 50.5q0 33 -34.5 47t-131.5 14l39 241h-267v1434h672v-150h-494v-469h443v-149h-443v-516h494v-150h-272l-20 -141q91 -10 130.5 -49.5 t39.5 -118.5q0 -94 -58.5 -140t-162.5 -46q-54 0 -129 14z" />
<glyph unicode="&#x1e1d;" horiz-adv-x="958" d="M631 1427h166q-42 -266 -291 -266t-291 266h168q8 -141 123 -141q110 0 125 141zM366 -495v127q56 -12 110 -12q44 0 64 13.5t20 49.5q0 33 -34.5 47.5t-131.5 14.5l39 243q-61 5 -105.5 21t-83 52t-62 94t-36.5 147t-13 210q0 278 92 402t281 124q330 0 330 -434v-153 h-529q2 -99 14.5 -163.5t37 -97.5t52.5 -45t70 -12q131 0 275 33v-148q-72 -21 -190 -30l-20 -143q91 -10 130.5 -49.5t39.5 -118.5q0 -94 -58.5 -140t-162.5 -46q-54 0 -129 14zM502 893q-100 0 -143 -64.5t-50 -238.5h357v55q0 122 -38.5 185t-125.5 63z" />
<glyph unicode="&#x1e1e;" horiz-adv-x="937" d="M597 1571h-174v174h174v-174zM846 1284h-494v-489h443v-150h-443v-645h-178v1434h672v-150z" />
<glyph unicode="&#x1e1f;" horiz-adv-x="636" d="M542 1571h-174v174h174v-174zM616 874h-247v-874h-174v874h-134v150h134v160q0 129 70.5 196.5t189.5 67.5q25 0 49 -1.5t46 -5t36 -6t34.5 -7t26.5 -5.5v-145q-95 22 -166 22q-54 0 -83 -28t-29 -74v-174h247v-150z" />
<glyph unicode="&#x1e20;" d="M869 1571h-522v143h522v-143zM881 754v-734q-185 -34 -322 -34q-98 0 -165 20t-119.5 69t-82 136t-44.5 215t-15 313q0 151 12 262.5t39.5 190t64 128.5t93 78.5t118.5 39t148 10.5q107 0 230 -29v-147q-140 26 -267 26q-57 0 -94.5 -12t-71 -46.5t-51.5 -98.5 t-28.5 -166t-10.5 -250q0 -129 6 -223t19 -159.5t30.5 -106t46 -63t58.5 -30.5t74 -8q63 0 162 15v454h-183v150h353z" />
<glyph unicode="&#x1e21;" horiz-adv-x="1067" d="M810 1161h-522v144h522v-144zM911 666q0 -174 -101.5 -259t-311.5 -85q-78 0 -136 12q-20 -45 -20 -88q0 -28 10 -58q196 17 256 17q80 0 137.5 -12.5t105.5 -45t72.5 -94t24.5 -153.5q0 -99 -52 -165.5t-136.5 -95t-198.5 -28.5q-72 0 -200.5 13t-190.5 24v147 q202 -35 408 -35q98 0 145 38.5t47 101.5q0 80 -37.5 115.5t-134.5 35.5q-56 0 -166 -7t-172 -15q-35 32 -60.5 88.5t-25.5 103.5q0 111 55 172q-106 80 -106 289q0 86 23 150t61 103t94.5 62.5t115.5 32t132 8.5q90 0 160 -28l297 14v-154l-142 7q47 -86 47 -211zM737 682 q0 211 -209 211q-129 0 -180 -52.5t-51 -174.5q0 -97 45 -150t156 -53q55 0 95 8.5t74.5 31.5t52 67.5t17.5 111.5z" />
<glyph unicode="&#x1e22;" horiz-adv-x="1126" d="M650 1571h-174v174h174v-174zM952 0h-178v659h-422v-659h-178v1434h178v-623h422v623h178v-1434z" />
<glyph unicode="&#x1e23;" horiz-adv-x="1036" d="M882 1556h-174v175h174v-175zM338 0h-174v1434h174v-486q99 90 235 90q171 0 240.5 -85t69.5 -277v-676h-174v696q0 104 -34 149.5t-132 45.5q-83 0 -144 -57t-61 -117v-717z" />
<glyph unicode="&#x1e24;" horiz-adv-x="1126" d="M650 -297h-174v174h174v-174zM952 0h-178v659h-422v-659h-178v1434h178v-623h422v623h178v-1434z" />
<glyph unicode="&#x1e25;" horiz-adv-x="1036" d="M610 -297h-174v174h174v-174zM338 0h-174v1434h174v-486q99 90 235 90q171 0 240.5 -85t69.5 -277v-676h-174v696q0 104 -34 149.5t-132 45.5q-83 0 -144 -57t-61 -117v-717z" />
<glyph unicode="&#x1e26;" horiz-adv-x="1126" d="M855 1571h-174v164h174v-164zM445 1571h-174v164h174v-164zM952 0h-178v659h-422v-659h-178v1434h178v-623h422v623h178v-1434z" />
<glyph unicode="&#x1e27;" horiz-adv-x="1036" d="M815 1556h-174v164h174v-164zM406 1556h-175v164h175v-164zM338 0h-174v1434h174v-486q99 90 235 90q171 0 240.5 -85t69.5 -277v-676h-174v696q0 104 -34 149.5t-132 45.5q-83 0 -144 -57t-61 -117v-717z" />
<glyph unicode="&#x1e28;" horiz-adv-x="1126" d="M127 -481v127q56 -12 111 -12q44 0 64 13.5t20 50.5q0 33 -34.5 47t-131.5 14l38 241h-20v1434h178v-623h422v623h178v-1434h-178v659h-422v-659h-25l-20 -141q91 -10 130.5 -49.5t39.5 -118.5q0 -94 -58.5 -140t-162.5 -46q-54 0 -129 14z" />
<glyph unicode="&#x1e29;" horiz-adv-x="1036" d="M115 -481v127q55 -12 110 -12q44 0 64 13.5t20 50.5q0 33 -34.5 47t-131.5 14l39 241h-18v1434h174v-486q99 90 235 90q171 0 240.5 -85t69.5 -277v-676h-174v696q0 104 -34 149.5t-132 45.5q-83 0 -144 -57t-61 -117v-717h-23l-20 -141q91 -10 130.5 -49.5t39.5 -118.5 q0 -94 -58.5 -140t-162.5 -46q-54 0 -129 14z" />
<glyph unicode="&#x1e2a;" horiz-adv-x="1126" d="M688 -123h166q-42 -266 -291 -266t-291 266h168q8 -141 123 -141q110 0 125 141zM952 0h-178v659h-422v-659h-178v1434h178v-623h422v623h178v-1434z" />
<glyph unicode="&#x1e2b;" horiz-adv-x="1036" d="M648 -123h166q-42 -266 -291 -266t-291 266h168q8 -141 123 -141q110 0 125 141zM338 0h-174v1434h174v-486q99 90 235 90q171 0 240.5 -85t69.5 -277v-676h-174v696q0 104 -34 149.5t-132 45.5q-83 0 -144 -57t-61 -117v-717z" />
<glyph unicode="&#x1e2c;" horiz-adv-x="649" d="M38 -340v150q80 67 176 67q50 0 122.5 -40t110.5 -40q50 0 84.5 17t79.5 57v-150q-70 -67 -176 -67q-43 0 -83 20t-77 40t-73 20q-82 0 -164 -74zM557 0h-465v150h144v1134h-144v150h465v-150h-143v-1134h143v-150z" />
<glyph unicode="&#x1e2d;" horiz-adv-x="501" d="M-36 -340v150q80 67 176 67q50 0 123 -40t111 -40q50 0 84.5 17t79.5 57v-150q-70 -67 -177 -67q-43 0 -83 20t-77 40t-73 20q-82 0 -164 -74zM348 1249h-194v185h194v-185zM338 0h-174v1024h174v-1024z" />
<glyph unicode="&#x1e2e;" horiz-adv-x="649" d="M408 1792h-166l213 276h223zM557 0h-465v150h144v1134h-144v150h465v-150h-143v-1134h143v-150zM616 1505h-174v164h174v-164zM207 1505h-174v164h174v-164z" />
<glyph unicode="&#x1e2f;" horiz-adv-x="501" d="M334 1505h-166l213 277h223zM338 0h-174v1024h174v-1024zM543 1219h-174v163h174v-163zM133 1219h-174v163h174v-163z" />
<glyph unicode="&#x1e30;" horiz-adv-x="1007" d="M633 1571h-166l213 276h223zM946 0h-201l-319 657l-74 -122v-535h-178v1434h178v-629l383 629h191l-389 -627z" />
<glyph unicode="&#x1e31;" horiz-adv-x="950" d="M333 1556h-166l213 277h223zM879 0h-203l-277 510l-61 -72v-438h-174v1434h174v-779l313 369h213l-346 -395z" />
<glyph unicode="&#x1e32;" horiz-adv-x="1007" d="M647 -297h-174v174h174v-174zM946 0h-201l-319 657l-74 -122v-535h-178v1434h178v-629l383 629h191l-389 -627z" />
<glyph unicode="&#x1e33;" horiz-adv-x="950" d="M608 -297h-174v174h174v-174zM879 0h-203l-277 510l-61 -72v-438h-174v1434h174v-779l313 369h213l-346 -395z" />
<glyph unicode="&#x1e34;" horiz-adv-x="1007" d="M821 -266h-522v143h522v-143zM946 0h-201l-319 657l-74 -122v-535h-178v1434h178v-629l383 629h191l-389 -627z" />
<glyph unicode="&#x1e35;" horiz-adv-x="950" d="M782 -266h-522v143h522v-143zM879 0h-203l-277 510l-61 -72v-438h-174v1434h174v-779l313 369h213l-346 -395z" />
<glyph unicode="&#x1e36;" horiz-adv-x="839" d="M579 -297h-175v174h175v-174zM809 0h-635v1434h178v-1278h457v-156z" />
<glyph unicode="&#x1e37;" horiz-adv-x="542" d="M425 -303h-174v174h174v-174zM461 154v-144q-77 -16 -123 -16q-33 0 -61.5 11t-55 36t-42 73.5t-15.5 114.5v1205h174v-1194q0 -55 14.5 -76t53.5 -21q10 0 21 2t21.5 5.5t12.5 3.5z" />
<glyph unicode="&#x1e38;" horiz-adv-x="839" d="M523 1571h-522v143h522v-143zM579 -297h-175v174h175v-174zM809 0h-635v1434h178v-1278h457v-156z" />
<glyph unicode="&#x1e39;" horiz-adv-x="542" d="M512 1556h-522v144h522v-144zM425 -303h-174v174h174v-174zM461 154v-144q-77 -16 -123 -16q-33 0 -61.5 11t-55 36t-42 73.5t-15.5 114.5v1205h174v-1194q0 -55 14.5 -76t53.5 -21q10 0 21 2t21.5 5.5t12.5 3.5z" />
<glyph unicode="&#x1e3a;" horiz-adv-x="839" d="M753 -266h-523v143h523v-143zM809 0h-635v1434h178v-1278h457v-156z" />
<glyph unicode="&#x1e3b;" horiz-adv-x="542" d="M599 -272h-522v143h522v-143zM461 154v-144q-77 -16 -123 -16q-33 0 -61.5 11t-55 36t-42 73.5t-15.5 114.5v1205h174v-1194q0 -55 14.5 -76t53.5 -21q10 0 21 2t21.5 5.5t12.5 3.5z" />
<glyph unicode="&#x1e3c;" horiz-adv-x="839" d="M812 -399h-199l-123 172l-122 -172h-197l229 276h181zM809 0h-635v1434h178v-1278h457v-156z" />
<glyph unicode="&#x1e3d;" horiz-adv-x="542" d="M658 -406h-198l-123 173l-123 -173h-197l230 277h180zM461 154v-144q-77 -16 -123 -16q-33 0 -61.5 11t-55 36t-42 73.5t-15.5 114.5v1205h174v-1194q0 -55 14.5 -76t53.5 -21q10 0 21 2t21.5 5.5t12.5 3.5z" />
<glyph unicode="&#x1e3e;" horiz-adv-x="1290" d="M728 1571h-166l213 276h223zM1116 0h-170v1286l-219 -805h-170l-219 805v-1286h-164v1434h289l186 -734l185 734h282v-1434z" />
<glyph unicode="&#x1e3f;" horiz-adv-x="1495" d="M887 1161h-166l213 277h223zM338 0h-174v1024h143l15 -90q93 104 231 104q171 0 244 -129q99 129 258 129q155 0 220.5 -86t65.5 -276v-676h-174v696q0 103 -29.5 149t-113.5 46q-78 0 -131 -56.5t-53 -117.5v-717h-174v696q0 103 -30 149t-114 46q-78 0 -131 -56.5 t-53 -117.5v-717z" />
<glyph unicode="&#x1e40;" horiz-adv-x="1290" d="M732 1571h-174v174h174v-174zM1116 0h-170v1286l-219 -805h-170l-219 805v-1286h-164v1434h289l186 -734l185 734h282v-1434z" />
<glyph unicode="&#x1e41;" horiz-adv-x="1495" d="M891 1161h-174v174h174v-174zM338 0h-174v1024h143l15 -90q93 104 231 104q171 0 244 -129q99 129 258 129q155 0 220.5 -86t65.5 -276v-676h-174v696q0 103 -29.5 149t-113.5 46q-78 0 -131 -56.5t-53 -117.5v-717h-174v696q0 103 -30 149t-114 46q-78 0 -131 -56.5 t-53 -117.5v-717z" />
<glyph unicode="&#x1e42;" horiz-adv-x="1290" d="M732 -297h-174v174h174v-174zM1116 0h-170v1286l-219 -805h-170l-219 805v-1286h-164v1434h289l186 -734l185 734h282v-1434z" />
<glyph unicode="&#x1e43;" horiz-adv-x="1495" d="M840 -297h-174v174h174v-174zM338 0h-174v1024h143l15 -90q93 104 231 104q171 0 244 -129q99 129 258 129q155 0 220.5 -86t65.5 -276v-676h-174v696q0 103 -29.5 149t-113.5 46q-78 0 -131 -56.5t-53 -117.5v-717h-174v696q0 103 -30 149t-114 46q-78 0 -131 -56.5 t-53 -117.5v-717z" />
<glyph unicode="&#x1e44;" horiz-adv-x="1120" d="M647 1571h-174v174h174v-174zM946 0h-293l-313 1282v-1282h-166v1434h291l315 -1282v1282h166v-1434z" />
<glyph unicode="&#x1e45;" horiz-adv-x="1036" d="M610 1161h-174v174h174v-174zM338 0h-174v1024h143l15 -92q100 106 251 106q171 0 240.5 -85t69.5 -277v-676h-174v696q0 104 -34 149.5t-132 45.5q-83 0 -144 -57t-61 -117v-717z" />
<glyph unicode="&#x1e46;" horiz-adv-x="1120" d="M647 -297h-174v174h174v-174zM946 0h-293l-313 1282v-1282h-166v1434h291l315 -1282v1282h166v-1434z" />
<glyph unicode="&#x1e47;" horiz-adv-x="1036" d="M610 -297h-174v174h174v-174zM338 0h-174v1024h143l15 -92q100 106 251 106q171 0 240.5 -85t69.5 -277v-676h-174v696q0 104 -34 149.5t-132 45.5q-83 0 -144 -57t-61 -117v-717z" />
<glyph unicode="&#x1e48;" horiz-adv-x="1120" d="M821 -266h-522v143h522v-143zM946 0h-293l-313 1282v-1282h-166v1434h291l315 -1282v1282h166v-1434z" />
<glyph unicode="&#x1e49;" horiz-adv-x="1036" d="M784 -266h-522v143h522v-143zM338 0h-174v1024h143l15 -92q100 106 251 106q171 0 240.5 -85t69.5 -277v-676h-174v696q0 104 -34 149.5t-132 45.5q-83 0 -144 -57t-61 -117v-717z" />
<glyph unicode="&#x1e4a;" horiz-adv-x="1120" d="M881 -399h-199l-123 172l-123 -172h-196l229 276h180zM946 0h-293l-313 1282v-1282h-166v1434h291l315 -1282v1282h166v-1434z" />
<glyph unicode="&#x1e4b;" horiz-adv-x="1036" d="M844 -399h-199l-123 172l-123 -172h-196l229 276h180zM338 0h-174v1024h143l15 -92q100 106 251 106q171 0 240.5 -85t69.5 -277v-676h-174v696q0 104 -34 149.5t-132 45.5q-83 0 -144 -57t-61 -117v-717z" />
<glyph unicode="&#x1e4c;" horiz-adv-x="1122" d="M542 1843h-166l213 277h223zM807 723q0 228 -24 351t-75.5 173.5t-146.5 50.5t-146.5 -50.5t-75.5 -173.5t-24 -351q0 -223 23.5 -349.5t76.5 -182.5t146 -56t146 56t76.5 182.5t23.5 349.5zM989 733q0 -157 -12 -271.5t-41 -207.5t-78 -150.5t-122.5 -87.5t-174.5 -30 t-174.5 30t-122.5 87.5t-78 150.5t-41 207.5t-12 271.5q0 150 12 260t41 199t78 143.5t122.5 83.5t174.5 29t174.5 -29t122.5 -83.5t78 -143.5t41 -199t12 -260zM283 1503v150q80 67 176 67q50 0 122.5 -40t110.5 -40q50 0 84.5 17t79.5 57v-149q-71 -68 -176 -68 q-43 0 -83 20t-77.5 40t-73.5 20q-49 0 -86.5 -19.5t-76.5 -54.5z" />
<glyph unicode="&#x1e4d;" horiz-adv-x="1044" d="M505 1556h-166l213 277h223zM911 532q0 -159 -24.5 -266.5t-75.5 -168.5t-120 -86t-169 -25t-169 25t-120 86t-75.5 168.5t-24.5 266.5q0 261 94.5 383.5t294.5 122.5t294.5 -122.5t94.5 -383.5zM733 502q0 221 -45 307t-166 86t-166 -86t-45 -307q0 -201 48 -287 t163 -86t163 86t48 287zM246 1217v149q81 68 176 68q50 0 122.5 -40t110.5 -40q50 0 85 17t79 56v-149q-71 -68 -176 -68q-43 0 -83 20t-77 40t-73 20q-84 0 -164 -73z" />
<glyph unicode="&#x1e4e;" horiz-adv-x="1122" d="M751 1843h-174v164h174v-164zM341 1843h-174v164h174v-164zM807 723q0 228 -24 351t-75.5 173.5t-146.5 50.5t-146.5 -50.5t-75.5 -173.5t-24 -351q0 -223 23.5 -349.5t76.5 -182.5t146 -56t146 56t76.5 182.5t23.5 349.5zM989 733q0 -157 -12 -271.5t-41 -207.5 t-78 -150.5t-122.5 -87.5t-174.5 -30t-174.5 30t-122.5 87.5t-78 150.5t-41 207.5t-12 271.5q0 150 12 260t41 199t78 143.5t122.5 83.5t174.5 29t174.5 -29t122.5 -83.5t78 -143.5t41 -199t12 -260zM283 1503v150q80 67 176 67q50 0 122.5 -40t110.5 -40q50 0 84.5 17 t79.5 57v-149q-71 -68 -176 -68q-43 0 -83 20t-77.5 40t-73.5 20q-49 0 -86.5 -19.5t-76.5 -54.5z" />
<glyph unicode="&#x1e4f;" horiz-adv-x="1044" d="M714 1556h-174v164h174v-164zM304 1556h-174v164h174v-164zM911 532q0 -159 -24.5 -266.5t-75.5 -168.5t-120 -86t-169 -25t-169 25t-120 86t-75.5 168.5t-24.5 266.5q0 261 94.5 383.5t294.5 122.5t294.5 -122.5t94.5 -383.5zM733 502q0 221 -45 307t-166 86t-166 -86 t-45 -307q0 -201 48 -287t163 -86t163 86t48 287zM246 1217v149q81 68 176 68q50 0 122.5 -40t110.5 -40q50 0 85 17t79 56v-149q-71 -68 -176 -68q-43 0 -83 20t-77 40t-73 20q-84 0 -164 -73z" />
<glyph unicode="&#x1e50;" horiz-adv-x="1122" d="M644 1837h-166l-270 277h223zM822 1571h-522v143h522v-143zM807 723q0 228 -24 351t-75.5 173.5t-146.5 50.5t-146.5 -50.5t-75.5 -173.5t-24 -351q0 -223 23.5 -349.5t76.5 -182.5t146 -56t146 56t76.5 182.5t23.5 349.5zM989 733q0 -157 -12 -271.5t-41 -207.5 t-78 -150.5t-122.5 -87.5t-174.5 -30t-174.5 30t-122.5 87.5t-78 150.5t-41 207.5t-12 271.5q0 150 12 260t41 199t78 143.5t122.5 83.5t174.5 29t174.5 -29t122.5 -83.5t78 -143.5t41 -199t12 -260z" />
<glyph unicode="&#x1e51;" horiz-adv-x="1044" d="M605 1427h-166l-270 277h223zM783 1161h-522v144h522v-144zM911 532q0 -159 -24.5 -266.5t-75.5 -168.5t-120 -86t-169 -25t-169 25t-120 86t-75.5 168.5t-24.5 266.5q0 261 94.5 383.5t294.5 122.5t294.5 -122.5t94.5 -383.5zM733 502q0 221 -45 307t-166 86t-166 -86 t-45 -307q0 -201 48 -287t163 -86t163 86t48 287z" />
<glyph unicode="&#x1e52;" horiz-adv-x="1122" d="M644 1837h-166l213 277h223zM822 1571h-522v143h522v-143zM807 723q0 228 -24 351t-75.5 173.5t-146.5 50.5t-146.5 -50.5t-75.5 -173.5t-24 -351q0 -223 23.5 -349.5t76.5 -182.5t146 -56t146 56t76.5 182.5t23.5 349.5zM989 733q0 -157 -12 -271.5t-41 -207.5 t-78 -150.5t-122.5 -87.5t-174.5 -30t-174.5 30t-122.5 87.5t-78 150.5t-41 207.5t-12 271.5q0 150 12 260t41 199t78 143.5t122.5 83.5t174.5 29t174.5 -29t122.5 -83.5t78 -143.5t41 -199t12 -260z" />
<glyph unicode="&#x1e53;" horiz-adv-x="1044" d="M605 1427h-166l213 277h224zM783 1161h-522v144h522v-144zM911 532q0 -159 -24.5 -266.5t-75.5 -168.5t-120 -86t-169 -25t-169 25t-120 86t-75.5 168.5t-24.5 266.5q0 261 94.5 383.5t294.5 122.5t294.5 -122.5t94.5 -383.5zM733 502q0 221 -45 307t-166 86t-166 -86 t-45 -307q0 -201 48 -287t163 -86t163 86t48 287z" />
<glyph unicode="&#x1e54;" d="M603 1571h-166l213 276h223zM739 989q0 159 -44 235t-150 76q-50 0 -98.5 -3t-71.5 -6l-23 -3v-598h193q194 0 194 299zM922 1004q0 -239 -92 -351t-306 -112h-172v-541h-178v1434q176 14 346 14q91 0 161 -22.5t115 -61t74 -95.5t40.5 -121.5t11.5 -143.5z" />
<glyph unicode="&#x1e55;" horiz-adv-x="1021" d="M648 1161h-166l213 277h224zM338 -348h-174v1372h143l17 -88q97 102 241 102q175 0 249.5 -112t74.5 -348q0 -228 -42 -355t-135 -182t-259 -55q-53 0 -115 8v-342zM532 891q-81 0 -137.5 -56.5t-56.5 -117.5v-576q62 -8 135 -8q72 0 119 25.5t73 81.5t36 130.5t10 186.5 q0 192 -39.5 263t-139.5 71z" />
<glyph unicode="&#x1e56;" d="M607 1571h-174v174h174v-174zM739 989q0 159 -44 235t-150 76q-50 0 -98.5 -3t-71.5 -6l-23 -3v-598h193q194 0 194 299zM922 1004q0 -239 -92 -351t-306 -112h-172v-541h-178v1434q176 14 346 14q91 0 161 -22.5t115 -61t74 -95.5t40.5 -121.5t11.5 -143.5z" />
<glyph unicode="&#x1e57;" horiz-adv-x="1021" d="M652 1161h-174v174h174v-174zM338 -348h-174v1372h143l17 -88q97 102 241 102q175 0 249.5 -112t74.5 -348q0 -228 -42 -355t-135 -182t-259 -55q-53 0 -115 8v-342zM532 891q-81 0 -137.5 -56.5t-56.5 -117.5v-576q62 -8 135 -8q72 0 119 25.5t73 81.5t36 130.5 t10 186.5q0 192 -39.5 263t-139.5 71z" />
<glyph unicode="&#x1e58;" horiz-adv-x="1054" d="M607 1571h-174v174h174v-174zM918 1030q0 -326 -205 -407l280 -623h-196l-262 594h-183v-594h-178v1434q176 14 346 14q114 0 193 -29t123 -86t63 -130.5t19 -172.5zM735 1016q0 153 -42 218.5t-148 65.5q-50 0 -98.5 -3t-71.5 -6l-23 -3v-545h193q46 0 78.5 11.5t59 41 t39.5 84t13 136.5z" />
<glyph unicode="&#x1e59;" horiz-adv-x="692" d="M489 1161h-174v174h174v-174zM338 0h-174v1024h143l12 -104q79 118 213 118q67 0 109 -10v-182q-79 18 -123 18q-48 0 -84.5 -20.5t-56.5 -55t-29.5 -74t-9.5 -83.5v-631z" />
<glyph unicode="&#x1e5a;" horiz-adv-x="1054" d="M671 -297h-174v174h174v-174zM918 1030q0 -326 -205 -407l280 -623h-196l-262 594h-183v-594h-178v1434q176 14 346 14q114 0 193 -29t123 -86t63 -130.5t19 -172.5zM735 1016q0 153 -42 218.5t-148 65.5q-50 0 -98.5 -3t-71.5 -6l-23 -3v-545h193q46 0 78.5 11.5t59 41 t39.5 84t13 136.5z" />
<glyph unicode="&#x1e5b;" horiz-adv-x="692" d="M338 -297h-174v174h174v-174zM338 0h-174v1024h143l12 -104q79 118 213 118q67 0 109 -10v-182q-79 18 -123 18q-48 0 -84.5 -20.5t-56.5 -55t-29.5 -74t-9.5 -83.5v-631z" />
<glyph unicode="&#x1e5c;" horiz-adv-x="1054" d="M781 1571h-522v143h522v-143zM671 -297h-174v174h174v-174zM918 1030q0 -326 -205 -407l280 -623h-196l-262 594h-183v-594h-178v1434q176 14 346 14q114 0 193 -29t123 -86t63 -130.5t19 -172.5zM735 1016q0 153 -42 218.5t-148 65.5q-50 0 -98.5 -3t-71.5 -6l-23 -3 v-545h193q46 0 78.5 11.5t59 41t39.5 84t13 136.5z" />
<glyph unicode="&#x1e5d;" horiz-adv-x="692" d="M794 1161h-523v144h523v-144zM338 -297h-174v174h174v-174zM338 0h-174v1024h143l12 -104q79 118 213 118q67 0 109 -10v-182q-79 18 -123 18q-48 0 -84.5 -20.5t-56.5 -55t-29.5 -74t-9.5 -83.5v-631z" />
<glyph unicode="&#x1e5e;" horiz-adv-x="1054" d="M845 -266h-522v143h522v-143zM918 1030q0 -326 -205 -407l280 -623h-196l-262 594h-183v-594h-178v1434q176 14 346 14q114 0 193 -29t123 -86t63 -130.5t19 -172.5zM735 1016q0 153 -42 218.5t-148 65.5q-50 0 -98.5 -3t-71.5 -6l-23 -3v-545h193q46 0 78.5 11.5t59 41 t39.5 84t13 136.5z" />
<glyph unicode="&#x1e5f;" horiz-adv-x="692" d="M512 -266h-522v143h522v-143zM338 0h-174v1024h143l12 -104q79 118 213 118q67 0 109 -10v-182q-79 18 -123 18q-48 0 -84.5 -20.5t-56.5 -55t-29.5 -74t-9.5 -83.5v-631z" />
<glyph unicode="&#x1e60;" horiz-adv-x="888" d="M609 1571h-174v174h174v-174zM780 408q0 -124 -28 -208.5t-84 -130.5t-126 -64.5t-167 -18.5q-121 0 -238 30v150q122 -31 258 -31q105 0 154 62t49 190q0 143 -39 202t-127 77q-172 36 -242.5 121.5t-70.5 265.5q0 395 403 395q103 0 217 -31v-149q-131 30 -237 30 q-85 0 -143 -55t-58 -168q0 -125 31 -172t127 -67q80 -17 134.5 -42.5t99 -73t66 -125t21.5 -187.5z" />
<glyph unicode="&#x1e61;" horiz-adv-x="823" d="M554 1161h-174v174h174v-174zM721 297q0 -311 -344 -311q-126 0 -246 32v150q168 -33 260 -33q74 0 111 45.5t37 106.5q0 75 -27 109.5t-102 47.5q-153 27 -220 97t-67 188q0 158 94 233.5t250 75.5q30 0 58.5 -2.5t54 -7t41 -8t38.5 -9.5t27 -7v-150q-12 3 -48.5 12 t-55.5 13t-55.5 8t-75.5 4q-46 0 -77 -12.5t-46 -35.5t-21 -47.5t-6 -56.5q0 -113 131 -133q157 -26 223 -99.5t66 -209.5z" />
<glyph unicode="&#x1e62;" horiz-adv-x="888" d="M462 -311h-174v174h174v-174zM780 408q0 -124 -28 -208.5t-84 -130.5t-126 -64.5t-167 -18.5q-121 0 -238 30v150q122 -31 258 -31q105 0 154 62t49 190q0 143 -39 202t-127 77q-172 36 -242.5 121.5t-70.5 265.5q0 395 403 395q103 0 217 -31v-149q-131 30 -237 30 q-85 0 -143 -55t-58 -168q0 -125 31 -172t127 -67q80 -17 134.5 -42.5t99 -73t66 -125t21.5 -187.5z" />
<glyph unicode="&#x1e63;" horiz-adv-x="823" d="M464 -311h-174v174h174v-174zM721 297q0 -311 -344 -311q-126 0 -246 32v150q168 -33 260 -33q74 0 111 45.5t37 106.5q0 75 -27 109.5t-102 47.5q-153 27 -220 97t-67 188q0 158 94 233.5t250 75.5q30 0 58.5 -2.5t54 -7t41 -8t38.5 -9.5t27 -7v-150q-12 3 -48.5 12 t-55.5 13t-55.5 8t-75.5 4q-46 0 -77 -12.5t-46 -35.5t-21 -47.5t-6 -56.5q0 -113 131 -133q157 -26 223 -99.5t66 -209.5z" />
<glyph unicode="&#x1e64;" horiz-adv-x="888" d="M851 1970h-174v174h174v-174zM605 1571h-166l213 276h224zM780 408q0 -124 -28 -208.5t-84 -130.5t-126 -64.5t-167 -18.5q-121 0 -238 30v150q122 -31 258 -31q105 0 154 62t49 190q0 143 -39 202t-127 77q-172 36 -242.5 121.5t-70.5 265.5q0 395 403 395 q103 0 217 -31v-149q-131 30 -237 30q-85 0 -143 -55t-58 -168q0 -125 31 -172t127 -67q80 -17 134.5 -42.5t99 -73t66 -125t21.5 -187.5z" />
<glyph unicode="&#x1e65;" horiz-adv-x="823" d="M796 1561h-174v174h174v-174zM550 1161h-166l213 277h223zM721 297q0 -311 -344 -311q-126 0 -246 32v150q168 -33 260 -33q74 0 111 45.5t37 106.5q0 75 -27 109.5t-102 47.5q-153 27 -220 97t-67 188q0 158 94 233.5t250 75.5q30 0 58.5 -2.5t54 -7t41 -8t38.5 -9.5 t27 -7v-150q-12 3 -48.5 12t-55.5 13t-55.5 8t-75.5 4q-46 0 -77 -12.5t-46 -35.5t-21 -47.5t-6 -56.5q0 -113 131 -133q157 -26 223 -99.5t66 -209.5z" />
<glyph unicode="&#x1e66;" horiz-adv-x="888" d="M569 1853h-174v175h174v-175zM162 1731h198l123 -138l123 138h197l-230 -236h-180zM780 408q0 -124 -28 -208.5t-84 -130.5t-126 -64.5t-167 -18.5q-121 0 -238 30v150q122 -31 258 -31q105 0 154 62t49 190q0 143 -39 202t-127 77q-172 36 -242.5 121.5t-70.5 265.5 q0 395 403 395q103 0 217 -31v-149q-131 30 -237 30q-85 0 -143 -55t-58 -168q0 -125 31 -172t127 -67q80 -17 134.5 -42.5t99 -73t66 -125t21.5 -187.5z" />
<glyph unicode="&#x1e67;" horiz-adv-x="823" d="M520 1585h-174v174h174v-174zM721 297q0 -311 -344 -311q-126 0 -246 32v150q168 -33 260 -33q74 0 111 45.5t37 106.5q0 75 -27 109.5t-102 47.5q-153 27 -220 97t-67 188q0 158 94 233.5t250 75.5q30 0 58.5 -2.5t54 -7t41 -8t38.5 -9.5t27 -7v-150q-12 3 -48.5 12 t-55.5 13t-55.5 8t-75.5 4q-46 0 -77 -12.5t-46 -35.5t-21 -47.5t-6 -56.5q0 -113 131 -133q157 -26 223 -99.5t66 -209.5zM113 1462h198l123 -172l123 172h197l-230 -276h-180z" />
<glyph unicode="&#x1e68;" horiz-adv-x="888" d="M609 1571h-174v174h174v-174zM462 -311h-174v174h174v-174zM780 408q0 -124 -28 -208.5t-84 -130.5t-126 -64.5t-167 -18.5q-121 0 -238 30v150q122 -31 258 -31q105 0 154 62t49 190q0 143 -39 202t-127 77q-172 36 -242.5 121.5t-70.5 265.5q0 395 403 395 q103 0 217 -31v-149q-131 30 -237 30q-85 0 -143 -55t-58 -168q0 -125 31 -172t127 -67q80 -17 134.5 -42.5t99 -73t66 -125t21.5 -187.5z" />
<glyph unicode="&#x1e69;" horiz-adv-x="823" d="M554 1161h-174v174h174v-174zM464 -311h-174v174h174v-174zM721 297q0 -311 -344 -311q-126 0 -246 32v150q168 -33 260 -33q74 0 111 45.5t37 106.5q0 75 -27 109.5t-102 47.5q-153 27 -220 97t-67 188q0 158 94 233.5t250 75.5q30 0 58.5 -2.5t54 -7t41 -8t38.5 -9.5 t27 -7v-150q-12 3 -48.5 12t-55.5 13t-55.5 8t-75.5 4q-46 0 -77 -12.5t-46 -35.5t-21 -47.5t-6 -56.5q0 -113 131 -133q157 -26 223 -99.5t66 -209.5z" />
<glyph unicode="&#x1e6a;" horiz-adv-x="870" d="M522 1571h-174v174h174v-174zM840 1278h-316v-1278h-178v1278h-315v156h809v-156z" />
<glyph unicode="&#x1e6b;" horiz-adv-x="657" d="M357 1393h-174v174h174v-174zM596 870h-238v-624q0 -17 4.5 -34.5t14.5 -36.5t32 -30.5t52 -11.5q54 0 135 21v-144q-81 -24 -176 -24q-119 0 -177.5 74t-58.5 196v614h-133v154h133v246h174v-246h238v-154z" />
<glyph unicode="&#x1e6c;" horiz-adv-x="870" d="M522 -297h-174v174h174v-174zM840 1278h-316v-1278h-178v1278h-315v156h809v-156z" />
<glyph unicode="&#x1e6d;" horiz-adv-x="657" d="M507 -311h-174v174h174v-174zM596 870h-238v-624q0 -17 4.5 -34.5t14.5 -36.5t32 -30.5t52 -11.5q54 0 135 21v-144q-81 -24 -176 -24q-119 0 -177.5 74t-58.5 196v614h-133v154h133v246h174v-246h238v-154z" />
<glyph unicode="&#x1e6e;" horiz-adv-x="870" d="M696 -266h-522v143h522v-143zM840 1278h-316v-1278h-178v1278h-315v156h809v-156z" />
<glyph unicode="&#x1e6f;" horiz-adv-x="657" d="M681 -281h-522v144h522v-144zM596 870h-238v-624q0 -17 4.5 -34.5t14.5 -36.5t32 -30.5t52 -11.5q54 0 135 21v-144q-81 -24 -176 -24q-119 0 -177.5 74t-58.5 196v614h-133v154h133v246h174v-246h238v-154z" />
<glyph unicode="&#x1e70;" horiz-adv-x="870" d="M756 -399h-199l-123 172l-123 -172h-196l229 276h180zM840 1278h-316v-1278h-178v1278h-315v156h809v-156z" />
<glyph unicode="&#x1e71;" horiz-adv-x="657" d="M740 -414h-198l-123 172l-123 -172h-197l230 277h180zM596 870h-238v-624q0 -17 4.5 -34.5t14.5 -36.5t32 -30.5t52 -11.5q54 0 135 21v-144q-81 -24 -176 -24q-119 0 -177.5 74t-58.5 196v614h-133v154h133v246h174v-246h238v-154z" />
<glyph unicode="&#x1e72;" horiz-adv-x="1095" d="M841 -301h-174v164h174v-164zM431 -301h-174v164h174v-164zM932 1434v-1055q0 -201 -100 -297t-283 -96q-184 0 -284.5 96t-100.5 297v1055h178v-1094q0 -103 55.5 -154t151.5 -51t150.5 50.5t54.5 154.5v1094h178z" />
<glyph unicode="&#x1e73;" horiz-adv-x="1005" d="M740 -301h-174v164h174v-164zM331 -301h-174v164h174v-164zM842 0h-144l-14 84q-89 -98 -235 -98q-165 0 -230 87.5t-65 282.5v668h174v-688q0 -106 29.5 -154.5t117.5 -48.5q79 0 134.5 54t58.5 114v723h174v-1024z" />
<glyph unicode="&#x1e74;" horiz-adv-x="1095" d="M262 -354v149q81 68 176 68q50 0 123 -40t111 -40q50 0 84.5 17t79.5 57v-150q-70 -67 -177 -67q-43 0 -83 20t-77 39.5t-73 19.5q-84 0 -164 -73zM932 1434v-1055q0 -201 -100 -297t-283 -96q-184 0 -284.5 96t-100.5 297v1055h178v-1094q0 -103 55.5 -154t151.5 -51 t150.5 50.5t54.5 154.5v1094h178z" />
<glyph unicode="&#x1e75;" horiz-adv-x="1005" d="M162 -354v149q81 68 176 68q50 0 122.5 -40t110.5 -40q50 0 84.5 17t79.5 57v-150q-70 -67 -176 -67q-43 0 -83 20t-77 39.5t-73 19.5q-84 0 -164 -73zM842 0h-144l-14 84q-89 -98 -235 -98q-165 0 -230 87.5t-65 282.5v668h174v-688q0 -106 29.5 -154.5t117.5 -48.5 q79 0 134.5 54t58.5 114v723h174v-1024z" />
<glyph unicode="&#x1e76;" horiz-adv-x="1095" d="M869 -414h-198l-123 172l-123 -172h-197l230 277h180zM932 1434v-1055q0 -201 -100 -297t-283 -96q-184 0 -284.5 96t-100.5 297v1055h178v-1094q0 -103 55.5 -154t151.5 -51t150.5 50.5t54.5 154.5v1094h178z" />
<glyph unicode="&#x1e77;" horiz-adv-x="1005" d="M769 -414h-199l-123 172l-122 -172h-197l229 277h181zM842 0h-144l-14 84q-89 -98 -235 -98q-165 0 -230 87.5t-65 282.5v668h174v-688q0 -106 29.5 -154.5t117.5 -48.5q79 0 134.5 54t58.5 114v723h174v-1024z" />
<glyph unicode="&#x1e78;" horiz-adv-x="1095" d="M520 1917h-166l213 276h224zM261 1577v149q81 68 176 68q50 0 123 -40t111 -40q50 0 84.5 17t79.5 57v-150q-70 -67 -177 -67q-43 0 -83 20t-77 40t-73 20q-82 0 -164 -74zM932 1434v-1055q0 -201 -100 -297t-283 -96q-184 0 -284.5 96t-100.5 297v1055h178v-1094 q0 -103 55.5 -154t151.5 -51t150.5 50.5t54.5 154.5v1094h178z" />
<glyph unicode="&#x1e79;" horiz-adv-x="1005" d="M470 1507h-166l213 277h223zM211 1167v150q80 67 176 67q50 0 123 -39.5t111 -39.5q50 0 84.5 17t78.5 56v-149q-71 -68 -176 -68q-43 0 -83 20t-77 40t-73 20q-82 0 -164 -74zM842 0h-144l-14 84q-89 -98 -235 -98q-165 0 -230 87.5t-65 282.5v668h174v-688 q0 -106 29.5 -154.5t117.5 -48.5q79 0 134.5 54t58.5 114v723h174v-1024z" />
<glyph unicode="&#x1e7a;" horiz-adv-x="1095" d="M840 1837h-174v164h174v-164zM430 1837h-174v164h174v-164zM809 1571h-522v143h522v-143zM932 1434v-1055q0 -201 -100 -297t-283 -96q-184 0 -284.5 96t-100.5 297v1055h178v-1094q0 -103 55.5 -154t151.5 -51t150.5 50.5t54.5 154.5v1094h178z" />
<glyph unicode="&#x1e7b;" horiz-adv-x="1005" d="M790 1427h-175v164h175v-164zM380 1427h-174v164h174v-164zM759 1161h-522v144h522v-144zM842 0h-144l-14 84q-89 -98 -235 -98q-165 0 -230 87.5t-65 282.5v668h174v-688q0 -106 29.5 -154.5t117.5 -48.5q79 0 134.5 54t58.5 114v723h174v-1024z" />
<glyph unicode="&#x1e7c;" horiz-adv-x="968" d="M198 1577v149q81 68 176 68q50 0 122.5 -40t110.5 -40q50 0 84.5 17t79.5 57v-150q-70 -67 -176 -67q-43 0 -83 20t-77.5 40t-73.5 20q-49 0 -86.5 -19.5t-76.5 -54.5zM897 1434l-301 -1434h-244l-280 1434h180l225 -1254l244 1254h176z" />
<glyph unicode="&#x1e7d;" horiz-adv-x="946" d="M186 1167v150q80 67 176 67q50 0 123 -39.5t111 -39.5q50 0 85 17t79 56v-149q-71 -68 -176 -68q-43 0 -83 20t-77.5 40t-73.5 20q-82 0 -164 -74zM874 1024l-274 -1024h-252l-276 1024h186l221 -879l215 879h180z" />
<glyph unicode="&#x1e7e;" horiz-adv-x="968" d="M561 -297h-174v174h174v-174zM897 1434l-301 -1434h-244l-280 1434h180l225 -1254l244 1254h176z" />
<glyph unicode="&#x1e7f;" horiz-adv-x="946" d="M561 -297h-174v174h174v-174zM874 1024l-274 -1024h-252l-276 1024h186l221 -879l215 879h180z" />
<glyph unicode="&#x1e80;" horiz-adv-x="1206" d="M701 1571h-165l-271 276h223zM1104 1434l-70 -1434h-278l-138 623l-149 -623h-266l-70 1434h158l61 -1321l185 716h168l186 -716l63 1321h150z" />
<glyph unicode="&#x1e81;" horiz-adv-x="1372" d="M769 1161h-166l-270 277h223zM1290 1024l-203 -1024h-268l-129 555l-141 -555h-262l-205 1024h180l166 -893l182 709h174l170 -709l166 893h170z" />
<glyph unicode="&#x1e82;" horiz-adv-x="1206" d="M701 1571h-165l213 276h223zM1104 1434l-70 -1434h-278l-138 623l-149 -623h-266l-70 1434h158l61 -1321l185 716h168l186 -716l63 1321h150z" />
<glyph unicode="&#x1e83;" horiz-adv-x="1372" d="M769 1161h-166l213 277h223zM1290 1024l-203 -1024h-268l-129 555l-141 -555h-262l-205 1024h180l166 -893l182 709h174l170 -709l166 893h170z" />
<glyph unicode="&#x1e84;" horiz-adv-x="1206" d="M910 1571h-174v164h174v-164zM501 1571h-174v164h174v-164zM1104 1434l-70 -1434h-278l-138 623l-149 -623h-266l-70 1434h158l61 -1321l185 716h168l186 -716l63 1321h150z" />
<glyph unicode="&#x1e85;" horiz-adv-x="1372" d="M978 1161h-174v164h174v-164zM568 1161h-174v164h174v-164zM1290 1024l-203 -1024h-268l-129 555l-141 -555h-262l-205 1024h180l166 -893l182 709h174l170 -709l166 893h170z" />
<glyph unicode="&#x1e86;" horiz-adv-x="1206" d="M706 1571h-175v174h175v-174zM1104 1434l-70 -1434h-278l-138 623l-149 -623h-266l-70 1434h158l61 -1321l185 716h168l186 -716l63 1321h150z" />
<glyph unicode="&#x1e87;" horiz-adv-x="1372" d="M773 1161h-174v174h174v-174zM1290 1024l-203 -1024h-268l-129 555l-141 -555h-262l-205 1024h180l166 -893l182 709h174l170 -709l166 893h170z" />
<glyph unicode="&#x1e88;" horiz-adv-x="1206" d="M706 -297h-175v174h175v-174zM1104 1434l-70 -1434h-278l-138 623l-149 -623h-266l-70 1434h158l61 -1321l185 716h168l186 -716l63 1321h150z" />
<glyph unicode="&#x1e89;" horiz-adv-x="1372" d="M774 -297h-174v174h174v-174zM1290 1024l-203 -1024h-268l-129 555l-141 -555h-262l-205 1024h180l166 -893l182 709h174l170 -709l166 893h170z" />
<glyph unicode="&#x1e8a;" horiz-adv-x="1015" d="M600 1571h-174v174h174v-174zM944 0h-201l-233 549l-246 -549h-192l348 741l-318 693h195l215 -494l221 494h191l-324 -691z" />
<glyph unicode="&#x1e8b;" horiz-adv-x="950" d="M566 1161h-174v174h174v-174zM879 0h-205l-195 379l-205 -379h-192l297 528l-273 496h201l176 -338l179 338h190l-277 -487z" />
<glyph unicode="&#x1e8c;" horiz-adv-x="1015" d="M805 1571h-174v164h174v-164zM395 1571h-174v164h174v-164zM944 0h-201l-233 549l-246 -549h-192l348 741l-318 693h195l215 -494l221 494h191l-324 -691z" />
<glyph unicode="&#x1e8d;" horiz-adv-x="950" d="M771 1161h-174v164h174v-164zM361 1161h-174v164h174v-164zM879 0h-205l-195 379l-205 -379h-192l297 528l-273 496h201l176 -338l179 338h190l-277 -487z" />
<glyph unicode="&#x1e8e;" horiz-adv-x="1005" d="M590 1571h-174v174h174v-174zM965 1434l-373 -768v-666h-184v666l-367 768h197l270 -596l270 596h187z" />
<glyph unicode="&#x1e8f;" horiz-adv-x="948" d="M561 1161h-174v174h174v-174zM877 1024l-297 -1114q-18 -69 -35 -111t-45 -81.5t-71 -57.5t-103 -18q-42 0 -117 12v149q58 -8 106 -8q57 0 82 92l33 113h-41l-317 1024h188l238 -846l200 846h179z" />
<glyph unicode="&#x1e90;" horiz-adv-x="892" d="M791 1571h-199l-123 172l-123 -172h-196l229 276h180zM801 1253l-527 -1101h506v-152h-688v180l529 1102h-482v152h662v-181z" />
<glyph unicode="&#x1e91;" horiz-adv-x="825" d="M749 1161h-199l-123 172l-123 -172h-196l229 277h180zM723 842l-442 -690h421v-152h-610v164l445 708h-404v152h590v-182z" />
<glyph unicode="&#x1e92;" horiz-adv-x="892" d="M523 -297h-174v174h174v-174zM801 1253l-527 -1101h506v-152h-688v180l529 1102h-482v152h662v-181z" />
<glyph unicode="&#x1e93;" horiz-adv-x="825" d="M484 -297h-174v174h174v-174zM723 842l-442 -690h421v-152h-610v164l445 708h-404v152h590v-182z" />
<glyph unicode="&#x1e94;" horiz-adv-x="892" d="M697 -266h-522v143h522v-143zM801 1253l-527 -1101h506v-152h-688v180l529 1102h-482v152h662v-181z" />
<glyph unicode="&#x1e95;" horiz-adv-x="825" d="M658 -266h-522v143h522v-143zM723 842l-442 -690h421v-152h-610v164l445 708h-404v152h590v-182z" />
<glyph unicode="&#x1e96;" horiz-adv-x="1036" d="M784 -266h-522v143h522v-143zM338 0h-174v1434h174v-486q99 90 235 90q171 0 240.5 -85t69.5 -277v-676h-174v696q0 104 -34 149.5t-132 45.5q-83 0 -144 -57t-61 -117v-717z" />
<glyph unicode="&#x1e97;" horiz-adv-x="657" d="M562 1393h-174v163h174v-163zM153 1393h-175v163h175v-163zM596 870h-238v-624q0 -17 4.5 -34.5t14.5 -36.5t32 -30.5t52 -11.5q54 0 135 21v-144q-81 -24 -176 -24q-119 0 -177.5 74t-58.5 196v614h-133v154h133v246h174v-246h238v-154z" />
<glyph unicode="&#x1e98;" horiz-adv-x="1372" d="M762 1372q0 101 -78 101q-41 0 -58.5 -29t-17.5 -72q0 -40 18 -70t58 -30q46 0 62 27t16 73zM881 1370q0 -91 -54.5 -150t-142.5 -59q-87 0 -139.5 59.5t-52.5 149.5q0 91 52 150t140 59q91 0 144 -57.5t53 -151.5zM1290 1024l-203 -1024h-268l-129 555l-141 -555h-262 l-205 1024h180l166 -893l182 709h174l170 -709l166 893h170z" />
<glyph unicode="&#x1e99;" horiz-adv-x="948" d="M550 1372q0 101 -78 101q-41 0 -58.5 -29t-17.5 -72q0 -40 18 -70t58 -30q46 0 62 27t16 73zM669 1370q0 -91 -54.5 -150t-142.5 -59q-87 0 -139.5 59.5t-52.5 149.5q0 91 52 150t140 59q91 0 144 -57.5t53 -151.5zM877 1024l-297 -1114q-18 -69 -35 -111t-45 -81.5 t-71 -57.5t-103 -18q-42 0 -117 12v149q58 -8 106 -8q57 0 82 92l33 113h-41l-317 1024h188l238 -846l200 846h179z" />
<glyph unicode="&#x1ea0;" d="M599 -297h-174v174h174v-174zM680 516l-168 782l-166 -782h334zM973 0h-182l-78 362h-400l-80 -362h-182l346 1434h236z" />
<glyph unicode="&#x1ea1;" horiz-adv-x="985" d="M495 -311h-174v174h174v-174zM893 0h-62q-25 0 -51 6.5t-57 30.5t-45 63q-79 -114 -270 -114q-49 0 -90 7t-82.5 27t-69.5 52.5t-46 87.5t-18 129q0 164 96.5 253t268.5 89h162v110q0 67 -40 108.5t-114 41.5q-146 0 -297 -43v149q135 41 277 41q195 0 271.5 -79 t76.5 -259v-491q0 -66 90 -66v-143zM449 133q49 0 87 16t56.5 40.5t27.5 46.5t9 40v216h-172q-73 0 -124.5 -48t-51.5 -143q0 -92 41.5 -130t126.5 -38z" />
<glyph unicode="&#x1ea4;" d="M593 1853h-166l213 277h223zM831 1495h-198l-123 131l-123 -131h-197l226 236h188zM680 516l-168 782l-166 -782h334zM973 0h-182l-78 362h-400l-80 -362h-182l346 1434h236z" />
<glyph unicode="&#x1ea5;" horiz-adv-x="985" d="M585 1587h-166l213 277h223zM893 0h-62q-25 0 -51 6.5t-57 30.5t-45 63q-79 -114 -270 -114q-49 0 -90 7t-82.5 27t-69.5 52.5t-46 87.5t-18 129q0 164 96.5 253t268.5 89h162v110q0 67 -40 108.5t-114 41.5q-146 0 -297 -43v149q135 41 277 41q195 0 271.5 -79 t76.5 -259v-491q0 -66 90 -66v-143zM449 133q49 0 87 16t56.5 40.5t27.5 46.5t9 40v216h-172q-73 0 -124.5 -48t-51.5 -143q0 -92 41.5 -130t126.5 -38zM823 1188h-198l-123 172l-123 -172h-197l230 276h180z" />
<glyph unicode="&#x1ea6;" d="M593 1853h-166l-270 277h223zM831 1495h-198l-123 131l-123 -131h-197l226 236h188zM680 516l-168 782l-166 -782h334zM973 0h-182l-78 362h-400l-80 -362h-182l346 1434h236z" />
<glyph unicode="&#x1ea7;" horiz-adv-x="985" d="M585 1587h-166l-271 277h224zM893 0h-62q-25 0 -51 6.5t-57 30.5t-45 63q-79 -114 -270 -114q-49 0 -90 7t-82.5 27t-69.5 52.5t-46 87.5t-18 129q0 164 96.5 253t268.5 89h162v110q0 67 -40 108.5t-114 41.5q-146 0 -297 -43v149q135 41 277 41q195 0 271.5 -79 t76.5 -259v-491q0 -66 90 -66v-143zM449 133q49 0 87 16t56.5 40.5t27.5 46.5t9 40v216h-172q-73 0 -124.5 -48t-51.5 -143q0 -92 41.5 -130t126.5 -38zM823 1188h-198l-123 172l-123 -172h-197l230 276h180z" />
<glyph unicode="&#x1eaa;" d="M223 1860v149q81 68 176 68q50 0 123 -40t111 -40q50 0 84.5 17t79.5 57v-150q-71 -68 -176 -68q-43 0 -83 20t-77.5 40t-73.5 20q-84 0 -164 -73zM831 1495h-198l-123 131l-123 -131h-197l226 236h188zM680 516l-168 782l-166 -782h334zM973 0h-182l-78 362h-400 l-80 -362h-182l346 1434h236z" />
<glyph unicode="&#x1eab;" horiz-adv-x="985" d="M215 1593v150q80 67 176 67q50 0 123 -39.5t111 -39.5q50 0 84.5 17t78.5 56v-149q-71 -68 -176 -68q-43 0 -83 20t-77 40t-73 20q-82 0 -164 -74zM893 0h-62q-25 0 -51 6.5t-57 30.5t-45 63q-79 -114 -270 -114q-49 0 -90 7t-82.5 27t-69.5 52.5t-46 87.5t-18 129 q0 164 96.5 253t268.5 89h162v110q0 67 -40 108.5t-114 41.5q-146 0 -297 -43v149q135 41 277 41q195 0 271.5 -79t76.5 -259v-491q0 -66 90 -66v-143zM449 133q49 0 87 16t56.5 40.5t27.5 46.5t9 40v216h-172q-73 0 -124.5 -48t-51.5 -143q0 -92 41.5 -130t126.5 -38z M823 1188h-198l-123 172l-123 -172h-197l230 276h180z" />
<glyph unicode="&#x1eac;" d="M836 1571h-199l-123 172l-123 -172h-196l229 276h180zM599 -297h-174v174h174v-174zM680 516l-168 782l-166 -782h334zM973 0h-182l-78 362h-400l-80 -362h-182l346 1434h236z" />
<glyph unicode="&#x1ead;" horiz-adv-x="985" d="M775 1161h-198l-123 172l-123 -172h-197l230 277h180zM495 -311h-174v174h174v-174zM893 0h-62q-25 0 -51 6.5t-57 30.5t-45 63q-79 -114 -270 -114q-49 0 -90 7t-82.5 27t-69.5 52.5t-46 87.5t-18 129q0 164 96.5 253t268.5 89h162v110q0 67 -40 108.5t-114 41.5 q-146 0 -297 -43v149q135 41 277 41q195 0 271.5 -79t76.5 -259v-491q0 -66 90 -66v-143zM449 133q49 0 87 16t56.5 40.5t27.5 46.5t9 40v216h-172q-73 0 -124.5 -48t-51.5 -143q0 -92 41.5 -130t126.5 -38z" />
<glyph unicode="&#x1eae;" d="M598 1960h-166l213 276h223zM640 1837h166q-42 -266 -291 -266t-291 266h168q8 -141 123 -141q110 0 125 141zM680 516l-168 782l-166 -782h334zM973 0h-182l-78 362h-400l-80 -362h-182l346 1434h236z" />
<glyph unicode="&#x1eaf;" horiz-adv-x="985" d="M538 1550h-166l213 277h223zM580 1427h165q-42 -266 -290 -266q-249 0 -291 266h168q8 -141 123 -141q110 0 125 141zM893 0h-62q-25 0 -51 6.5t-57 30.5t-45 63q-79 -114 -270 -114q-49 0 -90 7t-82.5 27t-69.5 52.5t-46 87.5t-18 129q0 164 96.5 253t268.5 89h162v110 q0 67 -40 108.5t-114 41.5q-146 0 -297 -43v149q135 41 277 41q195 0 271.5 -79t76.5 -259v-491q0 -66 90 -66v-143zM449 133q49 0 87 16t56.5 40.5t27.5 46.5t9 40v216h-172q-73 0 -124.5 -48t-51.5 -143q0 -92 41.5 -130t126.5 -38z" />
<glyph unicode="&#x1eb0;" d="M598 1960h-166l-270 276h223zM640 1837h166q-42 -266 -291 -266t-291 266h168q8 -141 123 -141q110 0 125 141zM680 516l-168 782l-166 -782h334zM973 0h-182l-78 362h-400l-80 -362h-182l346 1434h236z" />
<glyph unicode="&#x1eb1;" horiz-adv-x="985" d="M538 1550h-166l-271 277h224zM580 1427h165q-42 -266 -290 -266q-249 0 -291 266h168q8 -141 123 -141q110 0 125 141zM893 0h-62q-25 0 -51 6.5t-57 30.5t-45 63q-79 -114 -270 -114q-49 0 -90 7t-82.5 27t-69.5 52.5t-46 87.5t-18 129q0 164 96.5 253t268.5 89h162v110 q0 67 -40 108.5t-114 41.5q-146 0 -297 -43v149q135 41 277 41q195 0 271.5 -79t76.5 -259v-491q0 -66 90 -66v-143zM449 133q49 0 87 16t56.5 40.5t27.5 46.5t9 40v216h-172q-73 0 -124.5 -48t-51.5 -143q0 -92 41.5 -130t126.5 -38z" />
<glyph unicode="&#x1eb4;" d="M228 1966v150q80 67 176 67q50 0 123 -40t111 -40q50 0 84.5 17t79.5 57v-149q-71 -68 -176 -68q-43 0 -83 20t-77.5 40t-73.5 20q-82 0 -164 -74zM640 1837h166q-42 -266 -291 -266t-291 266h168q8 -141 123 -141q110 0 125 141zM680 516l-168 782l-166 -782h334zM973 0 h-182l-78 362h-400l-80 -362h-182l346 1434h236z" />
<glyph unicode="&#x1eb5;" horiz-adv-x="985" d="M168 1556v150q81 68 176 68q50 0 123 -40t111 -40q50 0 84.5 17t78.5 56v-149q-71 -68 -176 -68q-43 0 -83 20t-77 40t-73 20q-82 0 -164 -74zM580 1427h165q-42 -266 -290 -266q-249 0 -291 266h168q8 -141 123 -141q110 0 125 141zM893 0h-62q-25 0 -51 6.5t-57 30.5 t-45 63q-79 -114 -270 -114q-49 0 -90 7t-82.5 27t-69.5 52.5t-46 87.5t-18 129q0 164 96.5 253t268.5 89h162v110q0 67 -40 108.5t-114 41.5q-146 0 -297 -43v149q135 41 277 41q195 0 271.5 -79t76.5 -259v-491q0 -66 90 -66v-143zM449 133q49 0 87 16t56.5 40.5 t27.5 46.5t9 40v216h-172q-73 0 -124.5 -48t-51.5 -143q0 -92 41.5 -130t126.5 -38z" />
<glyph unicode="&#x1eb6;" d="M640 1837h166q-42 -266 -291 -266t-291 266h168q8 -141 123 -141q110 0 125 141zM599 -297h-174v174h174v-174zM680 516l-168 782l-166 -782h334zM973 0h-182l-78 362h-400l-80 -362h-182l346 1434h236z" />
<glyph unicode="&#x1eb7;" horiz-adv-x="985" d="M580 1427h165q-42 -266 -290 -266q-249 0 -291 266h168q8 -141 123 -141q110 0 125 141zM495 -311h-174v174h174v-174zM893 0h-62q-25 0 -51 6.5t-57 30.5t-45 63q-79 -114 -270 -114q-49 0 -90 7t-82.5 27t-69.5 52.5t-46 87.5t-18 129q0 164 96.5 253t268.5 89h162v110 q0 67 -40 108.5t-114 41.5q-146 0 -297 -43v149q135 41 277 41q195 0 271.5 -79t76.5 -259v-491q0 -66 90 -66v-143zM449 133q49 0 87 16t56.5 40.5t27.5 46.5t9 40v216h-172q-73 0 -124.5 -48t-51.5 -143q0 -92 41.5 -130t126.5 -38z" />
<glyph unicode="&#x1eb8;" horiz-adv-x="968" d="M597 -297h-174v174h174v-174zM846 0h-672v1434h672v-150h-494v-469h443v-149h-443v-516h494v-150z" />
<glyph unicode="&#x1eb9;" horiz-adv-x="958" d="M589 -311h-174v174h174v-174zM836 451h-529q2 -99 14.5 -163.5t37 -97.5t52.5 -45t70 -12q131 0 275 33v-148q-49 -13 -123.5 -22.5t-130.5 -9.5q-77 0 -129.5 10.5t-101.5 43t-77 90t-44.5 152.5t-16.5 230q0 278 92 402t281 124q330 0 330 -434v-153zM502 893 q-100 0 -143 -64.5t-50 -238.5h357v55q0 122 -38.5 185t-125.5 63z" />
<glyph unicode="&#x1ebc;" horiz-adv-x="968" d="M223 1577v149q81 68 176 68q50 0 123 -40t111 -40q50 0 84.5 17t79.5 57v-150q-70 -67 -176 -67q-43 0 -83 20t-77.5 40t-73.5 20q-82 0 -164 -74zM846 0h-672v1434h672v-150h-494v-469h443v-149h-443v-516h494v-150z" />
<glyph unicode="&#x1ebd;" horiz-adv-x="958" d="M219 1167v150q80 67 176 67q50 0 123 -39.5t111 -39.5q50 0 85 17t79 56v-149q-71 -68 -177 -68q-43 0 -83 20t-77 40t-73 20q-82 0 -164 -74zM836 451h-529q2 -99 14.5 -163.5t37 -97.5t52.5 -45t70 -12q131 0 275 33v-148q-49 -13 -123.5 -22.5t-130.5 -9.5 q-77 0 -129.5 10.5t-101.5 43t-77 90t-44.5 152.5t-16.5 230q0 278 92 402t281 124q330 0 330 -434v-153zM502 893q-100 0 -143 -64.5t-50 -238.5h357v55q0 122 -38.5 185t-125.5 63z" />
<glyph unicode="&#x1ebe;" horiz-adv-x="968" d="M593 1853h-166l213 277h223zM831 1495h-198l-123 131l-123 -131h-197l226 236h188zM846 0h-672v1434h672v-150h-494v-469h443v-149h-443v-516h494v-150z" />
<glyph unicode="&#x1ebf;" horiz-adv-x="958" d="M589 1587h-166l213 277h223zM836 451h-529q2 -99 14.5 -163.5t37 -97.5t52.5 -45t70 -12q131 0 275 33v-148q-49 -13 -123.5 -22.5t-130.5 -9.5q-77 0 -129.5 10.5t-101.5 43t-77 90t-44.5 152.5t-16.5 230q0 278 92 402t281 124q330 0 330 -434v-153zM502 893 q-100 0 -143 -64.5t-50 -238.5h357v55q0 122 -38.5 185t-125.5 63zM827 1188h-198l-123 172l-123 -172h-197l230 276h180z" />
<glyph unicode="&#x1ec0;" horiz-adv-x="968" d="M593 1853h-166l-270 277h223zM831 1495h-198l-123 131l-123 -131h-197l226 236h188zM846 0h-672v1434h672v-150h-494v-469h443v-149h-443v-516h494v-150z" />
<glyph unicode="&#x1ec1;" horiz-adv-x="958" d="M589 1587h-166l-270 277h223zM836 451h-529q2 -99 14.5 -163.5t37 -97.5t52.5 -45t70 -12q131 0 275 33v-148q-49 -13 -123.5 -22.5t-130.5 -9.5q-77 0 -129.5 10.5t-101.5 43t-77 90t-44.5 152.5t-16.5 230q0 278 92 402t281 124q330 0 330 -434v-153zM502 893 q-100 0 -143 -64.5t-50 -238.5h357v55q0 122 -38.5 185t-125.5 63zM827 1188h-198l-123 172l-123 -172h-197l230 276h180z" />
<glyph unicode="&#x1ec4;" horiz-adv-x="968" d="M223 1860v149q81 68 176 68q50 0 123 -40t111 -40q50 0 84.5 17t79.5 57v-150q-71 -68 -176 -68q-43 0 -83 20t-77.5 40t-73.5 20q-84 0 -164 -73zM831 1495h-198l-123 131l-123 -131h-197l226 236h188zM846 0h-672v1434h672v-150h-494v-469h443v-149h-443v-516h494v-150 z" />
<glyph unicode="&#x1ec5;" horiz-adv-x="958" d="M219 1593v150q80 67 176 67q50 0 123 -39.5t111 -39.5q50 0 85 17t79 56v-149q-71 -68 -177 -68q-43 0 -83 20t-77 40t-73 20q-82 0 -164 -74zM836 451h-529q2 -99 14.5 -163.5t37 -97.5t52.5 -45t70 -12q131 0 275 33v-148q-49 -13 -123.5 -22.5t-130.5 -9.5 q-77 0 -129.5 10.5t-101.5 43t-77 90t-44.5 152.5t-16.5 230q0 278 92 402t281 124q330 0 330 -434v-153zM502 893q-100 0 -143 -64.5t-50 -238.5h357v55q0 122 -38.5 185t-125.5 63zM827 1188h-198l-123 172l-123 -172h-197l230 276h180z" />
<glyph unicode="&#x1ec6;" horiz-adv-x="968" d="M830 1571h-198l-123 172l-123 -172h-197l230 276h180zM597 -297h-174v174h174v-174zM846 0h-672v1434h672v-150h-494v-469h443v-149h-443v-516h494v-150z" />
<glyph unicode="&#x1ec7;" horiz-adv-x="958" d="M826 1161h-198l-123 172l-123 -172h-197l230 277h180zM589 -311h-174v174h174v-174zM836 451h-529q2 -99 14.5 -163.5t37 -97.5t52.5 -45t70 -12q131 0 275 33v-148q-49 -13 -123.5 -22.5t-130.5 -9.5q-77 0 -129.5 10.5t-101.5 43t-77 90t-44.5 152.5t-16.5 230 q0 278 92 402t281 124q330 0 330 -434v-153zM502 893q-100 0 -143 -64.5t-50 -238.5h357v55q0 122 -38.5 185t-125.5 63z" />
<glyph unicode="&#x1eca;" horiz-adv-x="649" d="M412 -297h-174v174h174v-174zM557 0h-465v150h144v1134h-144v150h465v-150h-143v-1134h143v-150z" />
<glyph unicode="&#x1ecb;" horiz-adv-x="501" d="M338 -297h-174v174h174v-174zM348 1249h-194v185h194v-185zM338 0h-174v1024h174v-1024z" />
<glyph unicode="&#x1ecc;" horiz-adv-x="1122" d="M648 -311h-174v174h174v-174zM807 723q0 228 -24 351t-75.5 173.5t-146.5 50.5t-146.5 -50.5t-75.5 -173.5t-24 -351q0 -223 23.5 -349.5t76.5 -182.5t146 -56t146 56t76.5 182.5t23.5 349.5zM989 733q0 -157 -12 -271.5t-41 -207.5t-78 -150.5t-122.5 -87.5t-174.5 -30 t-174.5 30t-122.5 87.5t-78 150.5t-41 207.5t-12 271.5q0 150 12 260t41 199t78 143.5t122.5 83.5t174.5 29t174.5 -29t122.5 -83.5t78 -143.5t41 -199t12 -260z" />
<glyph unicode="&#x1ecd;" horiz-adv-x="1044" d="M609 -311h-174v174h174v-174zM911 532q0 -159 -24.5 -266.5t-75.5 -168.5t-120 -86t-169 -25t-169 25t-120 86t-75.5 168.5t-24.5 266.5q0 261 94.5 383.5t294.5 122.5t294.5 -122.5t94.5 -383.5zM733 502q0 221 -45 307t-166 86t-166 -86t-45 -307q0 -201 48 -287 t163 -86t163 86t48 287z" />
<glyph unicode="&#x1ed0;" horiz-adv-x="1122" d="M644 1853h-166l213 277h223zM883 1495h-199l-123 131l-123 -131h-196l225 236h188zM807 723q0 228 -24 351t-75.5 173.5t-146.5 50.5t-146.5 -50.5t-75.5 -173.5t-24 -351q0 -223 23.5 -349.5t76.5 -182.5t146 -56t146 56t76.5 182.5t23.5 349.5zM989 733 q0 -157 -12 -271.5t-41 -207.5t-78 -150.5t-122.5 -87.5t-174.5 -30t-174.5 30t-122.5 87.5t-78 150.5t-41 207.5t-12 271.5q0 150 12 260t41 199t78 143.5t122.5 83.5t174.5 29t174.5 -29t122.5 -83.5t78 -143.5t41 -199t12 -260z" />
<glyph unicode="&#x1ed1;" horiz-adv-x="1044" d="M605 1587h-166l213 277h224zM911 532q0 -159 -24.5 -266.5t-75.5 -168.5t-120 -86t-169 -25t-169 25t-120 86t-75.5 168.5t-24.5 266.5q0 261 94.5 383.5t294.5 122.5t294.5 -122.5t94.5 -383.5zM733 502q0 221 -45 307t-166 86t-166 -86t-45 -307q0 -201 48 -287 t163 -86t163 86t48 287zM844 1188h-199l-123 172l-123 -172h-196l229 276h180z" />
<glyph unicode="&#x1ed2;" horiz-adv-x="1122" d="M644 1853h-166l-270 277h223zM883 1495h-199l-123 131l-123 -131h-196l225 236h188zM807 723q0 228 -24 351t-75.5 173.5t-146.5 50.5t-146.5 -50.5t-75.5 -173.5t-24 -351q0 -223 23.5 -349.5t76.5 -182.5t146 -56t146 56t76.5 182.5t23.5 349.5zM989 733 q0 -157 -12 -271.5t-41 -207.5t-78 -150.5t-122.5 -87.5t-174.5 -30t-174.5 30t-122.5 87.5t-78 150.5t-41 207.5t-12 271.5q0 150 12 260t41 199t78 143.5t122.5 83.5t174.5 29t174.5 -29t122.5 -83.5t78 -143.5t41 -199t12 -260z" />
<glyph unicode="&#x1ed3;" horiz-adv-x="1044" d="M605 1587h-166l-270 277h223zM911 532q0 -159 -24.5 -266.5t-75.5 -168.5t-120 -86t-169 -25t-169 25t-120 86t-75.5 168.5t-24.5 266.5q0 261 94.5 383.5t294.5 122.5t294.5 -122.5t94.5 -383.5zM733 502q0 221 -45 307t-166 86t-166 -86t-45 -307q0 -201 48 -287 t163 -86t163 86t48 287zM844 1188h-199l-123 172l-123 -172h-196l229 276h180z" />
<glyph unicode="&#x1ed6;" horiz-adv-x="1122" d="M274 1860v149q81 68 177 68q50 0 122.5 -40t110.5 -40q50 0 84.5 17t79.5 57v-150q-71 -68 -176 -68q-43 0 -83 20t-77.5 40t-73.5 20q-84 0 -164 -73zM883 1495h-199l-123 131l-123 -131h-196l225 236h188zM807 723q0 228 -24 351t-75.5 173.5t-146.5 50.5t-146.5 -50.5 t-75.5 -173.5t-24 -351q0 -223 23.5 -349.5t76.5 -182.5t146 -56t146 56t76.5 182.5t23.5 349.5zM989 733q0 -157 -12 -271.5t-41 -207.5t-78 -150.5t-122.5 -87.5t-174.5 -30t-174.5 30t-122.5 87.5t-78 150.5t-41 207.5t-12 271.5q0 150 12 260t41 199t78 143.5 t122.5 83.5t174.5 29t174.5 -29t122.5 -83.5t78 -143.5t41 -199t12 -260z" />
<glyph unicode="&#x1ed7;" horiz-adv-x="1044" d="M236 1593v150q80 67 176 67q50 0 122.5 -39.5t110.5 -39.5q50 0 85 17t79 56v-149q-71 -68 -176 -68q-43 0 -83 20t-77.5 40t-73.5 20q-49 0 -86.5 -19.5t-76.5 -54.5zM911 532q0 -159 -24.5 -266.5t-75.5 -168.5t-120 -86t-169 -25t-169 25t-120 86t-75.5 168.5 t-24.5 266.5q0 261 94.5 383.5t294.5 122.5t294.5 -122.5t94.5 -383.5zM733 502q0 221 -45 307t-166 86t-166 -86t-45 -307q0 -201 48 -287t163 -86t163 86t48 287zM844 1188h-199l-123 172l-123 -172h-196l229 276h180z" />
<glyph unicode="&#x1ed8;" horiz-adv-x="1122" d="M882 1571h-199l-123 172l-123 -172h-196l229 276h180zM648 -311h-174v174h174v-174zM807 723q0 228 -24 351t-75.5 173.5t-146.5 50.5t-146.5 -50.5t-75.5 -173.5t-24 -351q0 -223 23.5 -349.5t76.5 -182.5t146 -56t146 56t76.5 182.5t23.5 349.5zM989 733 q0 -157 -12 -271.5t-41 -207.5t-78 -150.5t-122.5 -87.5t-174.5 -30t-174.5 30t-122.5 87.5t-78 150.5t-41 207.5t-12 271.5q0 150 12 260t41 199t78 143.5t122.5 83.5t174.5 29t174.5 -29t122.5 -83.5t78 -143.5t41 -199t12 -260z" />
<glyph unicode="&#x1ed9;" horiz-adv-x="1044" d="M843 1161h-199l-123 172l-123 -172h-196l229 277h180zM609 -311h-174v174h174v-174zM911 532q0 -159 -24.5 -266.5t-75.5 -168.5t-120 -86t-169 -25t-169 25t-120 86t-75.5 168.5t-24.5 266.5q0 261 94.5 383.5t294.5 122.5t294.5 -122.5t94.5 -383.5zM733 502 q0 221 -45 307t-166 86t-166 -86t-45 -307q0 -201 48 -287t163 -86t163 86t48 287z" />
<glyph unicode="&#x1eda;" horiz-adv-x="1261" d="M807 723q0 228 -24 351t-75.5 173.5t-146.5 50.5t-146.5 -50.5t-75.5 -173.5t-24 -351q0 -223 23.5 -349.5t76.5 -182.5t146 -56t146 56t76.5 182.5t23.5 349.5zM989 733q0 -157 -12 -271.5t-41 -207.5t-78 -150.5t-122.5 -87.5t-174.5 -30t-174.5 30t-122.5 87.5 t-78 150.5t-41 207.5t-12 271.5q0 150 12 260t41 199t78 143.5t122.5 83.5t174.5 29t174.5 -29t122.5 -83.5t78 -143.5t41 -199t12 -260zM1319 1243l-148 -287h-139l82 287v205h205v-205zM655 1571h-166l213 276h224z" />
<glyph unicode="&#x1edb;" horiz-adv-x="1155" d="M911 532q0 -159 -24.5 -266.5t-75.5 -168.5t-120 -86t-169 -25t-169 25t-120 86t-75.5 168.5t-24.5 266.5q0 261 94.5 383.5t294.5 122.5t294.5 -122.5t94.5 -383.5zM733 502q0 221 -45 307t-166 86t-166 -86t-45 -307q0 -201 48 -287t163 -86t163 86t48 287zM1237 834 l-147 -287h-140l82 287v204h205v-204zM610 1161h-166l213 277h224z" />
<glyph unicode="&#x1edc;" horiz-adv-x="1261" d="M807 723q0 228 -24 351t-75.5 173.5t-146.5 50.5t-146.5 -50.5t-75.5 -173.5t-24 -351q0 -223 23.5 -349.5t76.5 -182.5t146 -56t146 56t76.5 182.5t23.5 349.5zM989 733q0 -157 -12 -271.5t-41 -207.5t-78 -150.5t-122.5 -87.5t-174.5 -30t-174.5 30t-122.5 87.5 t-78 150.5t-41 207.5t-12 271.5q0 150 12 260t41 199t78 143.5t122.5 83.5t174.5 29t174.5 -29t122.5 -83.5t78 -143.5t41 -199t12 -260zM1319 1243l-148 -287h-139l82 287v205h205v-205zM659 1571h-165l-271 276h223z" />
<glyph unicode="&#x1edd;" horiz-adv-x="1155" d="M911 532q0 -159 -24.5 -266.5t-75.5 -168.5t-120 -86t-169 -25t-169 25t-120 86t-75.5 168.5t-24.5 266.5q0 261 94.5 383.5t294.5 122.5t294.5 -122.5t94.5 -383.5zM733 502q0 221 -45 307t-166 86t-166 -86t-45 -307q0 -201 48 -287t163 -86t163 86t48 287zM1237 834 l-147 -287h-140l82 287v204h205v-204zM627 1161h-166l-271 277h224z" />
<glyph unicode="&#x1ee0;" horiz-adv-x="1261" d="M807 723q0 228 -24 351t-75.5 173.5t-146.5 50.5t-146.5 -50.5t-75.5 -173.5t-24 -351q0 -223 23.5 -349.5t76.5 -182.5t146 -56t146 56t76.5 182.5t23.5 349.5zM989 733q0 -157 -12 -271.5t-41 -207.5t-78 -150.5t-122.5 -87.5t-174.5 -30t-174.5 30t-122.5 87.5 t-78 150.5t-41 207.5t-12 271.5q0 150 12 260t41 199t78 143.5t122.5 83.5t174.5 29t174.5 -29t122.5 -83.5t78 -143.5t41 -199t12 -260zM1319 1243l-148 -287h-139l82 287v205h205v-205zM303 1577v149q81 68 176 68q50 0 123 -40t111 -40q50 0 84.5 17t79.5 57v-150 q-70 -67 -177 -67q-43 0 -83 20t-77 40t-73 20q-82 0 -164 -74z" />
<glyph unicode="&#x1ee1;" horiz-adv-x="1155" d="M911 532q0 -159 -24.5 -266.5t-75.5 -168.5t-120 -86t-169 -25t-169 25t-120 86t-75.5 168.5t-24.5 266.5q0 261 94.5 383.5t294.5 122.5t294.5 -122.5t94.5 -383.5zM733 502q0 221 -45 307t-166 86t-166 -86t-45 -307q0 -201 48 -287t163 -86t163 86t48 287zM1237 834 l-147 -287h-140l82 287v204h205v-204zM262 1167v150q80 67 176 67q50 0 123 -39.5t111 -39.5q50 0 85 17t79 56v-149q-71 -68 -177 -68q-43 0 -83 20t-77 40t-73 20q-82 0 -164 -74z" />
<glyph unicode="&#x1ee2;" horiz-adv-x="1261" d="M648 -311h-174v174h174v-174zM807 723q0 228 -24 351t-75.5 173.5t-146.5 50.5t-146.5 -50.5t-75.5 -173.5t-24 -351q0 -223 23.5 -349.5t76.5 -182.5t146 -56t146 56t76.5 182.5t23.5 349.5zM989 733q0 -157 -12 -271.5t-41 -207.5t-78 -150.5t-122.5 -87.5t-174.5 -30 t-174.5 30t-122.5 87.5t-78 150.5t-41 207.5t-12 271.5q0 150 12 260t41 199t78 143.5t122.5 83.5t174.5 29t174.5 -29t122.5 -83.5t78 -143.5t41 -199t12 -260zM1319 1243l-148 -287h-139l82 287v205h205v-205z" />
<glyph unicode="&#x1ee3;" horiz-adv-x="1155" d="M609 -311h-174v174h174v-174zM911 532q0 -159 -24.5 -266.5t-75.5 -168.5t-120 -86t-169 -25t-169 25t-120 86t-75.5 168.5t-24.5 266.5q0 261 94.5 383.5t294.5 122.5t294.5 -122.5t94.5 -383.5zM733 502q0 221 -45 307t-166 86t-166 -86t-45 -307q0 -201 48 -287 t163 -86t163 86t48 287zM1237 834l-147 -287h-140l82 287v204h205v-204z" />
<glyph unicode="&#x1ee4;" horiz-adv-x="1095" d="M636 -311h-174v174h174v-174zM932 1434v-1055q0 -201 -100 -297t-283 -96q-184 0 -284.5 96t-100.5 297v1055h178v-1094q0 -103 55.5 -154t151.5 -51t150.5 50.5t54.5 154.5v1094h178z" />
<glyph unicode="&#x1ee5;" horiz-adv-x="1005" d="M536 -311h-175v174h175v-174zM842 0h-144l-14 84q-89 -98 -235 -98q-165 0 -230 87.5t-65 282.5v668h174v-688q0 -106 29.5 -154.5t117.5 -48.5q79 0 134.5 54t58.5 114v723h174v-1024z" />
<glyph unicode="&#x1ee8;" horiz-adv-x="1181" d="M1280 1243l-147 -287h-140l82 287v205h205v-205zM932 1434v-1055q0 -201 -100 -297t-283 -96q-184 0 -284.5 96t-100.5 297v1055h178v-1094q0 -103 55.5 -154t151.5 -51t150.5 50.5t54.5 154.5v1094h178zM651 1571h-166l213 276h224z" />
<glyph unicode="&#x1ee9;" horiz-adv-x="1107" d="M1190 834l-148 -287h-139l82 287v204h205v-204zM842 0h-144l-14 84q-89 -98 -235 -98q-165 0 -230 87.5t-65 282.5v668h174v-688q0 -106 29.5 -154.5t117.5 -48.5q79 0 134.5 54t58.5 114v723h174v-1024zM598 1161h-166l213 277h223z" />
<glyph unicode="&#x1eea;" horiz-adv-x="1206" d="M1280 1243l-147 -287h-140l82 287v205h205v-205zM932 1434v-1055q0 -201 -100 -297t-283 -96q-184 0 -284.5 96t-100.5 297v1055h178v-1094q0 -103 55.5 -154t151.5 -51t150.5 50.5t54.5 154.5v1094h178zM635 1571h-166l-270 276h223z" />
<glyph unicode="&#x1eeb;" horiz-adv-x="1112" d="M1190 834l-148 -287h-139l82 287v204h205v-204zM842 0h-144l-14 84q-89 -98 -235 -98q-165 0 -230 87.5t-65 282.5v668h174v-688q0 -106 29.5 -154.5t117.5 -48.5q79 0 134.5 54t58.5 114v723h174v-1024zM594 1161h-166l-270 277h223z" />
<glyph unicode="&#x1eee;" horiz-adv-x="1189" d="M1280 1243l-147 -287h-140l82 287v205h205v-205zM932 1434v-1055q0 -201 -100 -297t-283 -96q-184 0 -284.5 96t-100.5 297v1055h178v-1094q0 -103 55.5 -154t151.5 -51t150.5 50.5t54.5 154.5v1094h178zM262 1577v149q81 68 176 68q50 0 123 -40t111 -40q50 0 84.5 17 t79.5 57v-150q-70 -67 -177 -67q-43 0 -83 20t-77 40t-73 20q-82 0 -164 -74z" />
<glyph unicode="&#x1eef;" horiz-adv-x="1107" d="M1190 834l-148 -287h-139l82 287v204h205v-204zM842 0h-144l-14 84q-89 -98 -235 -98q-165 0 -230 87.5t-65 282.5v668h174v-688q0 -106 29.5 -154.5t117.5 -48.5q79 0 134.5 54t58.5 114v723h174v-1024zM217 1167v150q80 67 176 67q50 0 123 -39.5t111 -39.5q50 0 85 17 t79 56v-149q-71 -68 -177 -68q-43 0 -83 20t-77 40t-73 20q-82 0 -164 -74z" />
<glyph unicode="&#x1ef0;" horiz-adv-x="1095" d="M636 -311h-174v174h174v-174zM1280 1243l-147 -287h-140l82 287v205h205v-205zM932 1434v-1055q0 -201 -100 -297t-283 -96q-184 0 -284.5 96t-100.5 297v1055h178v-1094q0 -103 55.5 -154t151.5 -51t150.5 50.5t54.5 154.5v1094h178z" />
<glyph unicode="&#x1ef1;" horiz-adv-x="1005" d="M536 -311h-175v174h175v-174zM1190 834l-148 -287h-139l82 287v204h205v-204zM842 0h-144l-14 84q-89 -98 -235 -98q-165 0 -230 87.5t-65 282.5v668h174v-688q0 -106 29.5 -154.5t117.5 -48.5q79 0 134.5 54t58.5 114v723h174v-1024z" />
<glyph unicode="&#x1ef2;" horiz-adv-x="1005" d="M586 1571h-166l-270 276h223zM965 1434l-373 -768v-666h-184v666l-367 768h197l270 -596l270 596h187z" />
<glyph unicode="&#x1ef3;" horiz-adv-x="948" d="M557 1161h-166l-270 277h223zM877 1024l-297 -1114q-18 -69 -35 -111t-45 -81.5t-71 -57.5t-103 -18q-42 0 -117 12v149q58 -8 106 -8q57 0 82 92l33 113h-41l-317 1024h188l238 -846l200 846h179z" />
<glyph unicode="&#x1ef4;" horiz-adv-x="1005" d="M587 -297h-174v174h174v-174zM965 1434l-373 -768v-666h-184v666l-367 768h197l270 -596l270 596h187z" />
<glyph unicode="&#x1ef5;" horiz-adv-x="948" d="M413 -655h-174v174h174v-174zM877 1024l-297 -1114q-18 -69 -35 -111t-45 -81.5t-71 -57.5t-103 -18q-42 0 -117 12v149q58 -8 106 -8q57 0 82 92l33 113h-41l-317 1024h188l238 -846l200 846h179z" />
<glyph unicode="&#x1ef8;" horiz-adv-x="1005" d="M216 1577v149q81 68 176 68q50 0 123 -40t111 -40q50 0 84.5 17t79.5 57v-150q-70 -67 -177 -67q-43 0 -83 20t-77 40t-73 20q-82 0 -164 -74zM965 1434l-373 -768v-666h-184v666l-367 768h197l270 -596l270 596h187z" />
<glyph unicode="&#x1ef9;" horiz-adv-x="948" d="M187 1167v150q80 67 177 67q50 0 122.5 -39.5t110.5 -39.5q50 0 85 17t79 56v-149q-71 -68 -176 -68q-43 0 -83 20t-77.5 40t-73.5 20q-82 0 -164 -74zM877 1024l-297 -1114q-18 -69 -35 -111t-45 -81.5t-71 -57.5t-103 -18q-42 0 -117 12v149q58 -8 106 -8q57 0 82 92 l33 113h-41l-317 1024h188l238 -846l200 846h179z" />
<glyph unicode="&#x2013;" horiz-adv-x="1126" d="M952 563h-778v154h778v-154z" />
<glyph unicode="&#x2014;" horiz-adv-x="1239" d="M1106 563h-973v154h973v-154z" />
<glyph unicode="&#x2018;" horiz-adv-x="460" d="M113 1110l123 322h133l-62 -322v-184h-194v184z" />
<glyph unicode="&#x2019;" horiz-adv-x="460" d="M348 1249l-123 -321h-133l62 321v185h194v-185z" />
<glyph unicode="&#x201a;" horiz-adv-x="450" d="M358 0l-122 -322h-134l62 322v184h194v-184z" />
<glyph unicode="&#x201c;" horiz-adv-x="778" d="M113 1110l123 322h133l-62 -322v-184h-194v184zM430 1110l123 322h133l-61 -322v-184h-195v184z" />
<glyph unicode="&#x201d;" horiz-adv-x="778" d="M666 1249l-123 -321h-133l61 321v185h195v-185zM348 1249l-123 -321h-133l62 321v185h194v-185z" />
<glyph unicode="&#x201e;" horiz-adv-x="768" d="M676 0l-123 -322h-133l61 322v184h195v-184zM358 0l-122 -322h-134l62 322v184h194v-184z" />
<glyph unicode="&#x2020;" horiz-adv-x="962" d="M565 0h-164v870h-288v154h288v410h164v-410h287v-154h-287v-870z" />
<glyph unicode="&#x2021;" horiz-adv-x="962" d="M565 0h-164v430h-288v154h288v286h-288v154h288v410h164v-410h287v-154h-287v-286h287v-154h-287v-430z" />
<glyph unicode="&#x2022;" horiz-adv-x="593" d="M451 481h-308v318h308v-318z" />
<glyph unicode="&#x2026;" horiz-adv-x="1372" d="M338 0h-205v205h205v-205zM788 0h-204v205h204v-205zM1239 0h-205v205h205v-205z" />
<glyph unicode="&#x2030;" horiz-adv-x="2412" d="M594 1016q0 167 -31 239t-108 72t-108.5 -71.5t-31.5 -239.5t31.5 -239.5t108.5 -71.5t108 72t31 239zM735 1024q0 -83 -6 -144.5t-24 -120t-48.5 -95t-81 -58.5t-120.5 -22t-120.5 22t-81 58.5t-49 94.5t-24.5 120t-6 145t6.5 143t24 116t48.5 90.5t81.5 54.5t120.5 20 q71 0 121.5 -20.5t81 -54.5t48 -90t23.5 -116t6 -143zM1208 1434l-501 -1434h-160l502 1434h159zM1438 418q0 167 -31.5 239t-108.5 72t-108 -71.5t-31 -239.5t31 -240t108 -72t108.5 72.5t31.5 239.5zM1579 426q0 -83 -6 -145t-24.5 -120t-49 -94.5t-81 -58.5t-120.5 -22 t-120.5 22t-81 58.5t-48.5 95t-24 120t-6 144.5t6 143t24 116t48.5 90.5t81 54.5t120.5 20q71 0 121.5 -20.5t81 -54.5t48.5 -90t24 -116t6 -143zM2097 418q0 167 -31 239t-108 72t-108 -71.5t-31 -239.5t31 -240t108 -72t108 72.5t31 239.5zM2238 426q0 -83 -6 -144.5 t-24 -120t-48.5 -95t-81 -58.5t-120.5 -22t-120.5 22t-81 58.5t-49 94.5t-24.5 120t-6 145t6.5 143t24 116t48.5 90.5t81.5 54.5t120.5 20q71 0 121.5 -20.5t81 -54.5t48 -90t23.5 -116t6 -143z" />
<glyph unicode="&#x2031;" horiz-adv-x="3100" d="M2783 418q0 167 -31 239t-108 72t-108 -71.5t-31 -239.5t31 -240t108 -72t108 72.5t31 239.5zM2925 426q4 -43 4 -93q0 -347 -285 -347q-70 0 -120.5 22t-81 58.5t-49 94.5t-24.5 120t-6 145t6.5 143t24 116t48.5 90.5t81.5 54.5t120.5 20q59 0 102 -11.5t71.5 -38 t46.5 -58t29.5 -84.5t17.5 -102.5t14 -126.5v-3zM594 1016q0 167 -31 239t-108 72t-108.5 -71.5t-31.5 -239.5t31.5 -239.5t108.5 -71.5t108 72t31 239zM735 1024q0 -83 -6 -144.5t-24 -120t-48.5 -95t-81 -58.5t-120.5 -22t-120.5 22t-81 58.5t-49 94.5t-24.5 120t-6 145 t6.5 143t24 116t48.5 90.5t81.5 54.5t120.5 20q71 0 121.5 -20.5t81 -54.5t48 -90t23.5 -116t6 -143zM1208 1434l-501 -1434h-160l502 1434h159zM1438 418q0 167 -31.5 239t-108.5 72t-108 -71.5t-31 -239.5t31 -240t108 -72t108.5 72.5t31.5 239.5zM1579 426q0 -83 -6 -145 t-24.5 -120t-49 -94.5t-81 -58.5t-120.5 -22t-120.5 22t-81 58.5t-48.5 95t-24 120t-6 144.5t6 143t24 116t48.5 90.5t81 54.5t120.5 20q71 0 121.5 -20.5t81 -54.5t48.5 -90t24 -116t6 -143zM2097 418q0 167 -31 239t-108 72t-108 -71.5t-31 -239.5t31 -240t108 -72 t108 72.5t31 239.5zM2238 426q5 -53 5 -93q0 -347 -285 -347q-70 0 -120.5 22t-81 58.5t-49 94.5t-24.5 120t-6 145t6.5 143t24 116t48.5 90.5t81.5 54.5t120.5 20q148 0 206 -85q43 -64 62 -226q4 -33 12 -113z" />
<glyph unicode="&#x2039;" horiz-adv-x="624" d="M471 188h-135l-182 424l182 424h135l-129 -424z" />
<glyph unicode="&#x203a;" horiz-adv-x="624" d="M289 188h-135l129 424l-129 424h135l182 -424z" />
<glyph unicode="&#x203c;" horiz-adv-x="876" d="M358 0h-204v205h204v-205zM342 426h-174v1008h174v-1008zM696 0h-204v205h204v-205zM680 426h-174v1008h174v-1008z" />
<glyph unicode="&#x2044;" horiz-adv-x="471" d="M645 1659l-655 -1864h-164l655 1864h164z" />
<glyph unicode="&#x20ac;" horiz-adv-x="962" d="M872 1413l-41 -141q-123 26 -198 26q-64 0 -102.5 -22.5t-66 -92.5t-38.5 -200h334l-41 -149h-301v-199h280l-41 -150h-233q7 -111 23.5 -181.5t45 -107t61 -49t81.5 -12.5q73 0 196 29v-146q-120 -32 -186 -32q-97 0 -163.5 22t-117 78.5t-79.5 153.5t-41 245h-131 l41 150h82v199h-123l41 149h90q9 97 26.5 169.5t44.5 124t60 85t80 52.5t97.5 26.5t117.5 7.5q37 0 105 -13t97 -22z" />
<glyph unicode="&#x2122;" horiz-adv-x="1515" d="M1382 397h-135v922l-160 -580h-129l-161 580v-922h-133v916h-205v-916h-140v916h-237v121h819l127 -486l123 486h231v-1037z" />
<glyph unicode="&#x2126;" horiz-adv-x="1122" d="M477 0h-334v147h117q-70 74 -98.5 213.5t-28.5 372.5q0 150 12 260t41 199t78 143.5t122.5 83.5t174.5 29t174.5 -29t122.5 -83.5t78 -143.5t41 -199t12 -260q0 -231 -29.5 -371.5t-99.5 -214.5h123v-147h-334v154q87 35 122.5 165t35.5 404q0 228 -24 351t-75.5 173.5 t-146.5 50.5t-146.5 -50.5t-75.5 -173.5t-24 -351q0 -278 36 -408t126 -163v-152z" />
<glyph unicode="&#x2127;" horiz-adv-x="1122" d="M477 1448v-152q-90 -33 -126 -163t-36 -408q0 -228 24 -351t75.5 -173.5t146.5 -50.5t146.5 50.5t75.5 173.5t24 351q0 274 -35.5 404t-122.5 165v154h334v-148h-123q70 -75 99.5 -214.5t29.5 -370.5q0 -150 -12 -260t-41 -199t-78 -143.5t-122.5 -83.5t-174.5 -29 t-174.5 29t-122.5 83.5t-78 143.5t-41 199t-12 260q0 233 28.5 372t98.5 213h-117v148h334z" />
<glyph unicode="&#x2202;" horiz-adv-x="962" d="M119 436q0 92 7 159t28 129t56 100.5t93.5 61.5t138.5 23q122 0 215 -63q-2 121 -13 203.5t-27.5 133t-46 77.5t-61.5 36t-81 9q-21 0 -43.5 -2t-39.5 -4t-39.5 -6t-33.5 -6.5t-33 -8t-28 -6.5v145q108 31 197 31q83 0 143.5 -14.5t116.5 -57t90.5 -115t55 -191.5 t20.5 -284q0 -171 -8.5 -296t-29 -214.5t-47.5 -145.5t-70.5 -88t-91.5 -44t-116 -12q-59 0 -107 11t-95 42t-79 80t-51.5 129.5t-19.5 187.5zM457 762q-44 0 -73.5 -14.5t-47.5 -38.5t-27.5 -69.5t-12.5 -93.5t-3 -124q0 -150 43 -219.5t147 -69.5q49 0 78 19.5t52.5 79 t34 174t11.5 301.5q-106 55 -202 55z" />
<glyph unicode="&#x2206;" horiz-adv-x="1044" d="M993 0h-942l365 1434h227zM772 154l-244 1126l-256 -1126h500z" />
<glyph unicode="&#x220f;" horiz-adv-x="1155" d="M1063 1280h-184v-1040q0 -55 14 -76t53 -21q10 0 21 2t21.5 5.5t12.5 3.5v-144q-68 -14 -122 -14q-33 0 -62 11t-57 35.5t-44 72.5t-16 114v1051h-268v-1280h-178v1280h-162v154h971v-154z" />
<glyph unicode="&#x2211;" horiz-adv-x="962" d="M870 -348h-788v192l344 703l-317 692v195h739v-154h-559l332 -733l-363 -744h612v-151z" />
<glyph unicode="&#x2212;" horiz-adv-x="1126" d="M952 563h-778v154h778v-154z" />
<glyph unicode="&#x2215;" horiz-adv-x="471" d="M645 1659l-655 -1864h-164l655 1864h164z" />
<glyph unicode="&#x2219;" horiz-adv-x="471" d="M338 532h-205v205h205v-205z" />
<glyph unicode="&#x221a;" horiz-adv-x="1136" d="M1167 1526h-231l-358 -1526h-263l-243 803h182l188 -678l363 1554h362v-153z" />
<glyph unicode="&#x221e;" horiz-adv-x="1495" d="M459 821q-98 0 -147.5 -43.5t-49.5 -142.5q0 -100 49 -143t148 -43q119 0 165 55t46 190q-25 59 -81.5 93t-129.5 34zM758 461q-36 -75 -114 -118.5t-181 -43.5q-186 0 -278.5 87t-92.5 249t92.5 249t278.5 87q184 0 276 -162q36 75 113 118.5t180 43.5q186 0 278.5 -87 t92.5 -249t-92.5 -249t-278.5 -87q-87 0 -155 36.5t-119 125.5zM1036 449q98 0 147.5 43.5t49.5 142.5q0 100 -49 143t-148 43q-118 0 -163.5 -55t-45.5 -191q25 -59 80.5 -92.5t128.5 -33.5z" />
<glyph unicode="&#x2224;" horiz-adv-x="471" d="M338 532h-205v205h205v-205z" />
<glyph unicode="&#x2227;" horiz-adv-x="471" d="M338 532h-205v205h205v-205z" />
<glyph unicode="&#x222b;" horiz-adv-x="665" d="M-41 -471v145q77 -18 166 -18q54 0 83.5 26.5t29.5 71.5v1676q0 128 70 194t190 66q90 0 198 -21v-145q-77 18 -172 18q-54 0 -83 -26.5t-29 -71.5v-1675q0 -128 -70 -194.5t-190 -66.5q-85 0 -193 21z" />
<glyph unicode="&#x2248;" horiz-adv-x="1044" d="M174 352v160q112 68 209 68q56 0 150.5 -40t146.5 -40q83 0 190 73v-159q-101 -68 -208 -68q-58 0 -149 40t-148 40q-83 0 -191 -74zM174 700v160q112 68 209 68q56 0 150.5 -40t146.5 -40q82 0 190 74v-160q-101 -68 -208 -68q-58 0 -149 40t-148 40q-83 0 -191 -74z " />
<glyph unicode="&#x2260;" horiz-adv-x="1126" d="M952 768h-227l-160 -256h387v-154h-481l-133 -215h-164l133 215h-133v154h227l160 256h-387v154h481l133 215h164l-133 -215h133v-154z" />
<glyph unicode="&#x2264;" horiz-adv-x="1126" d="M952 256l-778 317v215l778 367v-188l-630 -279l630 -239v-193zM952 0h-778v154h778v-154z" />
<glyph unicode="&#x2265;" horiz-adv-x="1126" d="M952 573l-778 -317v193l631 239l-631 279v188l778 -367v-215zM952 0h-778v154h778v-154z" />
<glyph unicode="&#x22c5;" horiz-adv-x="471" d="M338 532h-205v205h205v-205z" />
<glyph unicode="&#x25af;" horiz-adv-x="1028" d="M133 0v1434h762v-1434h-762zM287 147h454v1139h-454v-1139z" />
<glyph unicode="&#x25ca;" horiz-adv-x="962" d="M881 717l-287 -717h-229l-283 717l287 717h225zM702 717l-221 573l-221 -573l221 -574z" />
<glyph unicode="&#xe000;" d="M0 1024h1024v-1024h-1024v1024z" />
</font>
</defs>
</svg>
