<?xml version="1.0" standalone="no"?>
<!DOCTYPE svg PUBLIC "-//W3C//DTD SVG 1.1//EN" "http://www.w3.org/Graphics/SVG/1.1/DTD/svg11.dtd" >
<svg xmlns="http://www.w3.org/2000/svg">
<metadata></metadata>
<defs>
<font id="share-italicregular" horiz-adv-x="1005" >
<font-face units-per-em="2048" ascent="1655" descent="-393" />
<missing-glyph horiz-adv-x="532" />
<glyph unicode="fi" horiz-adv-x="1044" d="M860 0h-174l74 874h-346l-84 -962q-21 -270 -279 -270q-86 0 -174 10l12 145q86 -8 148 -8q51 0 82 29.5t35 83.5l86 972h-134l13 150h133l10 119q6 76 26 129.5t61.5 94.5t111 61t170.5 20q135 0 309 -41l-14 -143q-136 41 -281 41q-61 0 -101.5 -9.5t-62.5 -30.5 t-31 -45.5t-12 -62.5l-12 -133h522z" />
<glyph unicode="fl" horiz-adv-x="1075" d="M995 154l-12 -144q-77 -16 -125 -16q-68 0 -112 43.5t-44 146.5q0 26 5 66l92 1044q-93 13 -154 13t-101.5 -10t-62 -31t-31 -46t-12.5 -63l-12 -133h192l-12 -150h-192l-84 -962q-21 -270 -279 -270q-86 0 -174 10l12 145q86 -8 148 -8q51 0 82 29.5t35 83.5l86 972 h-134l13 150h133l10 119q6 76 26 129.5t61.5 94.5t111 61t170.5 20q80 0 180 -14h174l-100 -1153l-2.5 -27.5t-2.5 -28t-1 -14.5q0 -37 13.5 -52.5t47.5 -15.5q10 0 21 2t21.5 5.5t12.5 3.5z" />
<glyph unicode="&#xd;" horiz-adv-x="532" />
<glyph unicode=" "  horiz-adv-x="532" />
<glyph unicode="&#x09;" horiz-adv-x="532" />
<glyph unicode="&#xa0;" horiz-adv-x="532" />
<glyph unicode="!" horiz-adv-x="512" d="M338 0h-205l17 205h204zM358 426h-174l88 1008h174z" />
<glyph unicode="&#x22;" horiz-adv-x="737" d="M395 1249l-69 -321h-113l-12 321l16 185h195zM713 1249l-70 -321h-113l-12 321l17 185h194z" />
<glyph unicode="#" horiz-adv-x="962" d="M588 522l35 410h-164l-35 -410h164zM881 369h-144l-30 -369h-164l30 369h-163l-31 -369h-164l31 369h-144l15 153h143l35 410h-143l14 153h143l31 349h164l-31 -349h164l31 349h163l-30 -349h143l-14 -153h-144l-34 -410h143z" />
<glyph unicode="$" horiz-adv-x="962" d="M522 -266h-174l23 256q-104 3 -199 30l14 150q118 -31 234 -31q112 0 159.5 73t47.5 224q0 96 -31 141t-94 58q-126 26 -197.5 114t-71.5 218q0 182 67.5 275.5t191.5 123.5l20 231h174l-18 -215q70 -2 176 -30l-13 -150q-132 31 -215 31q-95 0 -146.5 -57.5 t-51.5 -196.5q0 -77 28.5 -118t96.5 -56q135 -29 201.5 -108.5t66.5 -229.5q0 -20 -4 -70q-18 -191 -81 -279t-181 -114z" />
<glyph unicode="%" horiz-adv-x="1753" d="M662 1016q6 62 6 112q0 105 -28 152t-91 47q-87 0 -129.5 -102t-42.5 -328q0 -102 27 -147t90 -45q77 0 115 72t53 239zM803 1024q-8 -85 -18.5 -145t-33 -119.5t-56 -95.5t-87 -58t-125.5 -22q-137 0 -192 81.5t-55 235.5q0 59 6 123q8 85 18.5 143.5t32.5 115.5 t55 90.5t86 54t125 20.5q139 0 194.5 -76.5t55.5 -226.5q0 -57 -6 -121zM1313 1434l-627 -1434h-160l627 1434h160zM1454 418q6 61 6 112q0 105 -28 152t-91 47q-87 0 -129.5 -102t-42.5 -328q0 -102 27 -147.5t90 -45.5q77 0 115 72.5t53 239.5zM1595 426 q-8 -85 -18.5 -145t-33 -119.5t-55.5 -95.5t-86.5 -58t-125.5 -22q-137 0 -192.5 81.5t-55.5 235.5q0 59 6 123q8 85 18.5 143.5t32.5 115.5t55.5 90.5t86.5 54t125 20.5q139 0 194.5 -76.5t55.5 -226.5q0 -46 -7 -121z" />
<glyph unicode="&#x26;" horiz-adv-x="1038" d="M143 324q0 94 10.5 175t33.5 152.5t64 119t97 63.5q-58 42 -86.5 105.5t-28.5 127.5q0 96 22.5 166.5t58 111t91 64.5t109 31.5t123.5 7.5q106 0 203 -31l-15 -149q-28 7 -96 18.5t-108 11.5q-47 0 -80.5 -7.5t-66 -29.5t-49.5 -68.5t-17 -117.5q0 -174 155 -174h481 l-12 -149h-172l-63 -742q-159 -24 -336 -24q-157 0 -237.5 80t-80.5 258zM475 135q90 0 172 17l51 600h-178q-52 0 -92 -35t-63 -95t-34.5 -130.5t-11.5 -149.5q0 -97 42.5 -152t113.5 -55z" />
<glyph unicode="'" horiz-adv-x="419" d="M395 1249l-69 -321h-113l-12 321l16 185h195z" />
<glyph unicode="(" horiz-adv-x="655" d="M145 508q0 346 83.5 650.5t258.5 520.5h170q-340 -479 -340 -1185q0 -210 41.5 -387.5t130.5 -352.5h-170q-174 300 -174 754z" />
<glyph unicode=")" horiz-adv-x="655" d="M594 926q0 -753 -344 -1172h-170q340 479 340 1186q0 210 -41.5 387t-130.5 352h170q176 -299 176 -753z" />
<glyph unicode="*" horiz-adv-x="987" d="M936 1083l-293 -59l211 -252l-145 -102l-177 291l-180 -293l-141 106l211 250l-289 61l55 164l281 -112l-27 307h185l-27 -307l285 108z" />
<glyph unicode="+" horiz-adv-x="1126" d="M981 563h-307l-29 -321h-164l29 321h-309l12 154h309l29 323h164l-29 -323h307z" />
<glyph unicode="," horiz-adv-x="471" d="M317 0l-174 -287h-139l109 287l16 205h205z" />
<glyph unicode="-" horiz-adv-x="1013" d="M868 563h-665l12 154h666z" />
<glyph unicode="." horiz-adv-x="471" d="M317 0h-204l16 205h205z" />
<glyph unicode="/" horiz-adv-x="665" d="M778 1659l-647 -1884h-160l645 1884h162z" />
<glyph unicode="0" horiz-adv-x="962" d="M731 1034q0 149 -35.5 206.5t-122.5 57.5q-49 0 -83 -17.5t-59 -54t-43 -107.5t-30.5 -162t-25.5 -234q-3 -34 -10 -161.5t-7 -149.5q0 -152 34.5 -214.5t121.5 -62.5q42 0 73 12.5t55.5 43t41 72.5t30 112.5t23 150.5t19.5 197q18 193 18 311zM903 1006q0 -130 -14 -273 q-9 -103 -17.5 -177t-21.5 -151t-29 -129.5t-39 -103.5t-53 -82.5t-69.5 -56.5t-89 -36t-111.5 -11q-175 0 -245.5 108.5t-70.5 345.5q2 84 17 293q10 112 20 192t26 159.5t37 132.5t52 100t72 74t95.5 42t123.5 15q177 0 247 -105t70 -337z" />
<glyph unicode="1" horiz-adv-x="962" d="M788 0h-624l12 154h248l98 1116l-278 -105l14 166l258 103h195l-113 -1280h203z" />
<glyph unicode="2" horiz-adv-x="962" d="M844 1130q0 -77 -8.5 -137.5t-21.5 -105.5t-43 -99t-57 -93t-81 -111l-322 -432h469l-12 -152h-655l14 180l348 467q13 17 42.5 56t38 51.5t30 43.5t27.5 44.5t20 42t17.5 49t10 52t8 64t1.5 72.5q0 176 -158 176q-94 0 -254 -34l14 151q3 1 24 5t44.5 8.5t54 9t64.5 7.5 t65 3q320 0 320 -318z" />
<glyph unicode="3" horiz-adv-x="962" d="M780 469q0 -249 -95.5 -366t-289.5 -117q-113 0 -266 34l14 150q164 -35 263 -35q96 0 147 90t51 250q0 102 -34 148.5t-121 46.5h-168l12 149h147q52 0 91 23.5t59 55.5t32 75.5t14.5 72.5t2.5 58q0 105 -30.5 149.5t-104.5 44.5q-83 0 -256 -34l14 149q2 0 33.5 7 t61.5 12.5t74.5 10.5t80.5 5q145 0 223 -71t78 -242q0 -161 -45 -255.5t-141 -127.5q52 -3 87.5 -42.5t50.5 -100.5t15 -140z" />
<glyph unicode="4" horiz-adv-x="962" d="M870 319h-143l-27 -319h-174l27 319h-406l17 177l285 938h165l-278 -965h231l39 467h174l-39 -467h144z" />
<glyph unicode="5" horiz-adv-x="962" d="M827 1284h-368l-37 -422h41q186 0 262 -80t76 -247q0 -281 -90.5 -415t-302.5 -134q-30 0 -59 2t-60 7t-47.5 7.5t-49.5 9.5t-38 8l14 150q153 -35 260 -35q195 0 195 379q0 113 -37 156t-125 43h-225l63 721h543z" />
<glyph unicode="6" horiz-adv-x="962" d="M868 598q0 -305 -94.5 -458.5t-316.5 -153.5q-78 0 -129 18t-91 68t-58.5 143.5t-18.5 239.5q0 120 16 323q12 141 31.5 245t49.5 179t66.5 122.5t89 75t110 38t136.5 10.5q87 0 195 -31l-12 -145q-4 1 -33 8t-42 9.5t-39.5 7t-51 6.5t-49.5 2q-64 0 -104 -16t-74 -64.5 t-55.5 -139t-37.5 -239.5q98 63 222 63q86 0 143.5 -20.5t89 -62.5t44.5 -96.5t13 -131.5zM551 762q-95 0 -209 -55q-14 -175 -14 -297q0 -116 17.5 -178t45.5 -80.5t78 -18.5q119 0 171 113.5t52 335.5q0 97 -30 138.5t-111 41.5z" />
<glyph unicode="7" horiz-adv-x="962" d="M834 1235l-437 -1235h-182l453 1280h-455l14 154h625z" />
<glyph unicode="8" horiz-adv-x="962" d="M709 477q0 116 -53.5 162.5t-204.5 46.5q-95 -48 -132.5 -120.5t-37.5 -235.5q0 -109 45.5 -153t144.5 -44q59 0 101.5 16t68.5 43.5t41.5 72t21 94.5t5.5 118zM741 1122q0 91 -39.5 134.5t-128.5 43.5q-113 0 -160.5 -72t-47.5 -224q0 -105 49 -149t176 -44 q151 57 151 311zM883 471q0 -242 -99 -363.5t-325 -121.5q-181 0 -267 84.5t-86 259.5q0 101 17.5 176t50 120t65.5 70.5t78 44.5q-61 31 -92.5 105t-31.5 166q0 123 29 210t84 135.5t123 69.5t157 21q325 0 325 -324q0 -71 -7.5 -122t-27 -99t-57.5 -83.5t-96 -61.5 q82 -19 121 -97t39 -190z" />
<glyph unicode="9" horiz-adv-x="962" d="M172 862q0 586 401 586q67 0 113.5 -10t85.5 -38t61.5 -77.5t35 -127.5t12.5 -189q0 -131 -19 -351q-12 -142 -30 -245t-46 -178.5t-62 -122.5t-84 -74.5t-106.5 -38t-134.5 -10.5q-89 0 -194 30l14 150q140 -33 213 -33q46 0 77 9.5t60 36t48 77.5t35.5 131t29.5 199 q-100 -62 -221 -62q-158 0 -223.5 85t-65.5 253zM487 672q97 0 207 53q17 213 17 301t-9 143t-29.5 83.5t-46 38t-65.5 9.5q-215 0 -215 -446q0 -98 30 -140t111 -42z" />
<glyph unicode=":" horiz-adv-x="471" d="M317 0h-204l16 205h205zM387 819h-205l19 205h205z" />
<glyph unicode=";" horiz-adv-x="471" d="M317 0l-174 -287h-139l109 287l16 205h205zM387 819h-205l19 205h205z" />
<glyph unicode="&#x3c;" horiz-adv-x="1126" d="M950 215l-747 358l18 215l811 367l-16 -192l-660 -279l611 -281z" />
<glyph unicode="=" horiz-adv-x="1126" d="M963 358h-779l13 154h778zM997 768h-778l14 154h779z" />
<glyph unicode="&#x3e;" horiz-adv-x="1126" d="M981 573l-809 -358l16 197l672 280l-622 279l16 184l745 -367z" />
<glyph unicode="?" horiz-adv-x="737" d="M397 0h-204l16 205h205zM739 1085q-7 -71 -19 -112.5t-49 -94.5t-114 -133l-125 -131l-14 -188h-174l20 248l135 145q106 114 129 148q37 54 42 130q1 22 1 54q0 81 -40 114t-117 33q-84 0 -252 -32l12 151q137 31 232 31q167 0 252 -64.5t85 -222.5q0 -36 -4 -76z" />
<glyph unicode="@" horiz-adv-x="1669" d="M1546 821q-8 -83 -16 -145.5t-21.5 -126t-31 -108.5t-43.5 -85.5t-59 -65t-77.5 -38.5t-99.5 -14q-60 0 -116.5 40t-63.5 113q-33 -43 -99.5 -69.5t-150.5 -26.5q-49 0 -89 14t-77 47.5t-57.5 98t-20.5 155.5q0 122 24.5 212.5t65.5 145.5t103 88.5t127.5 45.5t148.5 12 q81 0 207 -29l-49 -571q-1 -10 -2.5 -28t-2.5 -29.5t-1 -12.5q0 -31 17.5 -52t49.5 -21q74 0 108.5 108.5t55.5 341.5q8 81 8 160q0 81 -13.5 135t-43 92t-85 58t-129 28.5t-185.5 8.5q-105 0 -180 -11t-133.5 -40t-96.5 -71t-65 -112.5t-42 -155t-26 -206.5 q-10 -120 -10 -191q0 -144 37.5 -224.5t133.5 -120.5t271 -40q87 0 324 25l-13 -146q-173 -24 -323 -24q-167 0 -280 29t-184.5 95.5t-102.5 167t-31 248.5q0 93 8 181q13 148 36 256t62 192.5t92.5 139t132.5 89.5t175.5 49.5t226.5 14.5q93 0 165 -6t138 -20.5t113 -39.5 t85.5 -62t62 -88.5t36 -119.5t12.5 -154q0 -64 -6 -137zM995 575l35 392q-40 10 -76 10q-45 0 -80 -7.5t-71.5 -30.5t-60.5 -61.5t-39 -104.5t-15 -155q0 -107 33.5 -143.5t101.5 -36.5q84 0 126 42t46 95z" />
<glyph unicode="A" horiz-adv-x="1024" d="M709 516l-105 782l-233 -782h338zM952 0h-178l-47 362h-403l-111 -362h-182l467 1434h235z" />
<glyph unicode="B" horiz-adv-x="1048" d="M758 418q4 50 4 65q0 102 -42 149.5t-138 47.5h-191l-47 -535q100 -10 186 -10q46 0 80.5 11t67 40t53 87t27.5 145zM784 1059q4 50 4 67q0 93 -39 133.5t-135 40.5q-44 0 -86.5 -3t-63.5 -6l-20 -3l-41 -461h170q30 0 52 3t51 16.5t49 37t36.5 68.5t22.5 107zM940 412 q-11 -121 -43 -204t-88 -131.5t-130.5 -69.5t-178.5 -21q-76 0 -162.5 3.5t-135.5 6.5l-48 4l125 1434q190 14 323 14q170 0 266.5 -78.5t96.5 -241.5q0 -286 -193 -364q31 -11 58.5 -31t54.5 -52.5t43 -84.5t16 -117q0 -35 -4 -67z" />
<glyph unicode="C" horiz-adv-x="866" d="M768 170l-14 -150q-41 -11 -112.5 -22.5t-117.5 -11.5q-75 0 -130 14t-100 47.5t-72.5 90.5t-42.5 143t-15 204q0 110 12 254q16 182 43 306t64.5 204t96.5 123.5t127 59.5t169 16q38 0 105.5 -12t95.5 -21l-15 -151q-124 30 -235 30q-60 0 -99 -19.5t-74 -78.5 t-58 -173.5t-40 -297.5q-14 -231 -14 -262q0 -82 8.5 -140.5t23 -94t39 -55.5t51 -27t64.5 -7q103 0 240 31z" />
<glyph unicode="D" horiz-adv-x="1077" d="M803 725q12 138 12 233q0 83 -8.5 144.5t-23 98.5t-37 59t-47 30t-56.5 8l-199 -8l-100 -1147q109 -8 195 -8q50 0 90 29.5t74.5 96.5t60 183.5t39.5 280.5zM987 739q-16 -183 -43.5 -313t-65.5 -215.5t-94 -135t-121 -69.5t-155 -20q-71 0 -159.5 3.5t-141.5 6.5l-53 4 l125 1434q190 14 331 14q76 0 131.5 -11.5t106 -43.5t82 -87t49.5 -144.5t18 -213.5q0 -79 -10 -209z" />
<glyph unicode="E" horiz-adv-x="958" d="M825 0h-671l125 1434h671l-14 -150h-494l-41 -469h443l-13 -149h-442l-45 -516h494z" />
<glyph unicode="F" horiz-adv-x="937" d="M936 1284h-494l-43 -489h443l-13 -150h-442l-55 -645h-178l125 1434h671z" />
<glyph unicode="G" horiz-adv-x="1013" d="M926 754l-66 -734q-185 -34 -323 -34q-99 0 -165.5 22.5t-115 78t-70.5 153t-22 245.5q0 110 12 254q16 181 45 305.5t69.5 204.5t104.5 123.5t137 59.5t181 16q87 0 227 -33l-12 -147q-161 30 -264 30q-56 0 -95 -12t-75 -47t-60.5 -98.5t-44.5 -165.5t-33 -250 q-14 -231 -14 -266q0 -102 12 -167t39 -99t60.5 -46t85.5 -12q62 0 161 15l41 454h-182l14 150h353z" />
<glyph unicode="H" horiz-adv-x="1126" d="M932 0h-178l57 659h-422l-57 -659h-178l125 1434h178l-56 -623h422l56 623h178z" />
<glyph unicode="I" horiz-adv-x="649" d="M537 0h-465l12 150h143l99 1134h-144l15 150h465l-15 -150h-143l-98 -1134h143z" />
<glyph unicode="J" horiz-adv-x="819" d="M678 514q-11 -134 -31.5 -225t-50.5 -151.5t-78.5 -93t-106 -45.5t-143.5 -13q-59 0 -217 24l12 150q41 -7 111 -14t96 -7q47 0 77.5 7.5t58 29t44.5 62.5t29.5 104.5t20.5 157.5l67 784h-329l14 150h508z" />
<glyph unicode="K" horiz-adv-x="1007" d="M926 0h-197l-266 657l-86 -122l-45 -535h-178l125 1434h178l-56 -629l439 629h190l-444 -627z" />
<glyph unicode="L" horiz-adv-x="839" d="M788 0h-634l125 1434h178l-113 -1278h457z" />
<glyph unicode="M" horiz-adv-x="1290" d="M1096 0h-166l110 1286l-292 -805h-170l-150 805l-111 -1286h-163l125 1434h288l121 -734l254 734h279z" />
<glyph unicode="N" horiz-adv-x="1120" d="M926 0h-293l-203 1282l-111 -1282h-165l125 1434h290l203 -1282l113 1282h166z" />
<glyph unicode="O" horiz-adv-x="1122" d="M848 723q14 168 14 246q0 184 -48.5 256.5t-160.5 72.5q-94 0 -150 -50t-91 -174t-56 -351q-12 -210 -12 -236q0 -191 48.5 -271.5t158.5 -80.5q94 0 151.5 56t92 182.5t53.5 349.5zM1032 733q-14 -159 -35 -271.5t-57 -207t-89 -151t-130.5 -87t-181.5 -30.5 q-206 0 -289.5 132t-83.5 417q0 53 10 198q13 152 33 260t56 198.5t89 144.5t130.5 83t181.5 29q204 0 290 -121.5t86 -382.5q0 -84 -10 -211z" />
<glyph unicode="P" horiz-adv-x="1024" d="M805 999q4 62 4 84q0 112 -40 164.5t-132 52.5q-50 0 -98.5 -3t-71.5 -6l-23 -3l-51 -577h193q94 0 150 65t69 223zM993 1083q0 -21 -6 -96q-19 -221 -119 -323.5t-317 -102.5h-172l-47 -561h-178l125 1434q176 14 346 14q191 0 279.5 -97t88.5 -268z" />
<glyph unicode="Q" horiz-adv-x="1122" d="M1032 733q-26 -282 -85 -448t-173 -240l236 -45l-17 -172l-454 158q-206 0 -289.5 132t-83.5 417q0 53 10 198q13 152 33 260t56 198.5t89 144.5t130.5 83t181.5 29q204 0 290 -121.5t86 -382.5q0 -84 -10 -211zM848 723q14 168 14 246q0 184 -48.5 256.5t-160.5 72.5 q-94 0 -150 -50t-91 -174t-56 -351q-12 -210 -12 -236q0 -191 48.5 -271.5t158.5 -80.5q94 0 151.5 56t92 182.5t53.5 349.5z" />
<glyph unicode="R" horiz-adv-x="1064" d="M987 1030q-16 -167 -72 -268t-167 -141l225 -621h-193l-207 594h-190l-51 -594h-178l125 1434q176 14 346 14q193 0 279.5 -91t86.5 -259q0 -22 -4 -68zM803 1016q4 58 4 78q0 109 -39 157.5t-131 48.5q-50 0 -98.5 -3t-71.5 -6l-23 -3l-49 -545h193q95 0 148 58t67 215z " />
<glyph unicode="S" horiz-adv-x="888" d="M799 485q0 -271 -105.5 -385t-335.5 -114q-117 0 -241 32l14 152q133 -35 254 -35q119 0 174 80t55 246q0 101 -35 145t-110 60q-147 32 -215 106.5t-68 218.5q0 457 435 457q96 0 221 -35l-15 -149q-145 34 -233 34q-100 0 -162.5 -71t-62.5 -223q0 -81 30 -115.5 t111 -52.5q143 -30 216 -108.5t73 -242.5z" />
<glyph unicode="T" horiz-adv-x="870" d="M930 1278h-316l-110 -1278h-178l110 1278h-315l14 156h809z" />
<glyph unicode="U" horiz-adv-x="1095" d="M1036 1434l-92 -1055q-18 -203 -123.5 -298t-294.5 -95q-160 0 -256 84t-96 254q0 39 4 75l90 1035h178l-92 -1051q-4 -66 -4 -72q0 -89 49.5 -132.5t139.5 -43.5q96 0 155 50.5t68 154.5l96 1094h178z" />
<glyph unicode="V" horiz-adv-x="968" d="M1001 1434l-426 -1434h-243l-156 1434h180l115 -1254l354 1254h176z" />
<glyph unicode="W" horiz-adv-x="1236" d="M1208 1434l-194 -1434h-279l-84 623l-202 -623h-267l56 1434h157l-55 -1321l244 716h168l127 -716l180 1321h149z" />
<glyph unicode="X" horiz-adv-x="1015" d="M924 0h-197l-188 553l-291 -553h-197l412 741l-256 693h190l174 -498l263 498h194l-385 -691z" />
<glyph unicode="Y" d="M1069 1434l-440 -768l-58 -666h-184l57 666l-299 768h193l217 -596l324 596h190z" />
<glyph unicode="Z" horiz-adv-x="892" d="M889 1253l-621 -1101h504l-12 -152h-688l14 180l623 1102h-480l15 152h661z" />
<glyph unicode="[" horiz-adv-x="665" d="M520 -246h-389l168 1925h389l-12 -153h-225l-142 -1618h226z" />
<glyph unicode="\" horiz-adv-x="665" d="M453 -225l-320 1884h162l319 -1884h-161z" />
<glyph unicode="]" horiz-adv-x="665" d="M449 -246h-390l15 154h225l141 1618h-225l12 153h389z" />
<glyph unicode="^" horiz-adv-x="997" d="M958 860h-182l-162 574l-284 -574h-185l357 696h233z" />
<glyph unicode="_" horiz-adv-x="1044" d="M987 -348h-1030l12 153h1030z" />
<glyph unicode="`" horiz-adv-x="620" d="M614 1188h-155l-256 276h223z" />
<glyph unicode="a" horiz-adv-x="1019" d="M152 467q28 302 143.5 436.5t347.5 134.5q53 0 131.5 -14t130.5 -31l-65 -714q0 -1 -1 -10.5t-2 -25.5t-1 -32q0 -78 79 -78l-10 -133h-39q-140 0 -176 127q-95 -141 -282 -141q-138 0 -200.5 91.5t-62.5 270.5q0 47 7 119zM453 133q99 0 155 64t64 155l47 531 q-54 8 -111 8q-284 0 -284 -557q0 -104 30 -152.5t99 -48.5z" />
<glyph unicode="b" horiz-adv-x="1021" d="M918 578q-15 -170 -45 -279t-87.5 -181t-142.5 -102t-213 -30q-140 0 -287 24l125 1424h174l-45 -502q96 106 246 106q148 0 213.5 -90.5t65.5 -263.5q0 -69 -4 -106zM602 891q-57 0 -101.5 -26t-70.5 -68.5t-40.5 -88.5t-18.5 -94l-43 -475q49 -6 137 -6q58 0 101 19.5 t72.5 54.5t49.5 92t31.5 122.5t19.5 156.5q4 37 4 102q0 109 -32.5 160t-108.5 51z" />
<glyph unicode="c" horiz-adv-x="827" d="M709 174l-15 -154q-125 -34 -225 -34q-83 0 -137.5 14.5t-98 54.5t-63.5 117t-20 195q0 243 45.5 391.5t134 214t229.5 65.5q91 0 221 -32l-12 -154q-128 33 -236 33q-91 0 -135.5 -85t-64.5 -308q-6 -73 -6 -127q0 -71 9.5 -117t30 -69.5t44 -31.5t59.5 -8q24 0 49.5 2 t43.5 4t42.5 6.5t36.5 7t36.5 8t31.5 7.5z" />
<glyph unicode="d" horiz-adv-x="1032" d="M152 467q28 306 140.5 438.5t356.5 132.5q55 0 113 -10l37 406h174l-125 -1434h-143l-11 123q-107 -137 -276 -137q-138 0 -204.5 92t-66.5 278q0 62 5 111zM463 133q56 0 102.5 25.5t75.5 67t45.5 88t20.5 94.5l43 475q-62 8 -136 8q-72 0 -122.5 -28.5t-82.5 -88 t-50 -137.5t-29 -191q-4 -70 -4 -98q0 -109 32.5 -162t104.5 -53z" />
<glyph unicode="e" horiz-adv-x="933" d="M872 758q0 -175 -104.5 -257.5t-294.5 -82.5q-75 0 -151 8v-74q0 -54 8.5 -94.5t22.5 -64t34.5 -37.5t40.5 -18.5t45 -4.5q38 0 72.5 2t67 7t51.5 8t50 10t38 8l-15 -148q-50 -14 -125.5 -24t-130.5 -10q-63 0 -109.5 8.5t-90.5 32.5t-71 65.5t-43.5 110.5t-16.5 164 q0 182 27.5 312.5t81.5 208.5t128.5 114t173.5 36q83 0 145.5 -23.5t97.5 -64t51.5 -88.5t16.5 -104zM559 893q-96 0 -152 -74t-75 -252q61 -6 110 -6q143 0 205 44t62 145q0 67 -32 105t-118 38z" />
<glyph unicode="f" horiz-adv-x="626" d="M662 874h-248l-84 -962q-21 -270 -279 -270q-86 0 -174 10l12 145q86 -8 148 -8q51 0 82 29.5t35 83.5l86 972h-134l13 150h133l14 160q24 264 283 264q78 0 190 -23l-12 -147q-90 22 -164 22q-54 0 -85 -28t-36 -74l-16 -174h248z" />
<glyph unicode="g" horiz-adv-x="1032" d="M152 477q28 303 142 432t355 129q125 0 285 -45l-82 -911q-9 -105 -24.5 -179.5t-41 -126.5t-55.5 -83t-77.5 -48t-96.5 -22.5t-123 -5.5q-92 0 -233 29l14 151q147 -30 242 -30q55 0 89 9t63 37.5t44.5 83.5t22.5 144l6 80q-100 -115 -264 -115q-140 0 -205.5 87.5 t-65.5 271.5q0 61 5 112zM463 154q58 0 105 24.5t75.5 64t45 83.5t20.5 90l41 465q-78 10 -136 10q-72 0 -122.5 -27t-82.5 -84.5t-50 -133.5t-29 -189q-4 -70 -4 -97q0 -107 32 -156.5t105 -49.5z" />
<glyph unicode="h" horiz-adv-x="1036" d="M317 0h-174l125 1434h174l-43 -502q92 106 244 106q153 0 216 -74t63 -221q0 -26 -4 -88l-56 -655h-174l55 655q7 70 7 78q0 76 -34 117t-118 41q-55 0 -98.5 -26t-69.5 -69.5t-40.5 -91t-18.5 -98.5z" />
<glyph unicode="i" horiz-adv-x="501" d="M436 1249h-194l16 185h195zM317 0h-174l88 1024h175z" />
<glyph unicode="j" horiz-adv-x="501" d="M406 1024l-97 -1112q-25 -270 -278 -270q-86 0 -174 10l12 145q86 -8 147 -8q51 0 82 29.5t35 83.5l98 1122h175zM436 1249h-194l16 185h195z" />
<glyph unicode="k" horiz-adv-x="950" d="M858 0h-199l-237 508l-68 -70l-37 -438h-174l125 1434h174l-67 -762l334 352h223l-381 -395z" />
<glyph unicode="l" horiz-adv-x="552" d="M453 154l-13 -144q-77 -16 -125 -16q-68 0 -111.5 43.5t-43.5 146.5q0 34 4 66l104 1184h174l-100 -1153l-2.5 -27.5t-2.5 -28t-1 -14.5q0 -37 13.5 -52.5t47.5 -15.5q10 0 21.5 2t22 5.5t12.5 3.5z" />
<glyph unicode="m" horiz-adv-x="1495" d="M317 0h-174l88 1024h144l2 -111q88 125 246 125q189 0 237 -137q43 68 106 102.5t158 34.5q144 0 201 -71t57 -215q0 -50 -6 -117l-53 -635h-174l55 655q6 75 6 93q0 70 -28.5 106.5t-102.5 36.5q-54 0 -94.5 -25.5t-63 -69t-34 -88t-15.5 -96.5l-51 -612h-174l55 655 q7 87 7 93q0 70 -28.5 106.5t-102.5 36.5q-55 0 -95.5 -26t-63.5 -70.5t-34.5 -90t-15.5 -98.5z" />
<glyph unicode="n" horiz-adv-x="1036" d="M317 0h-174l88 1024h144l2 -119q96 133 266 133q153 0 216 -74t63 -221q0 -26 -4 -88l-56 -655h-174l55 655q7 70 7 78q0 76 -34 117t-118 41q-55 0 -99 -26t-70 -69.5t-41 -91t-19 -98.5z" />
<glyph unicode="o" horiz-adv-x="1044" d="M940 647q0 -343 -104.5 -502t-335.5 -159q-85 0 -146.5 19.5t-108.5 66t-70 128.5t-23 201q0 331 104.5 484t335.5 153q348 0 348 -391zM756 502q6 80 6 141q0 138 -41 195t-141 57q-122 0 -174.5 -86t-71.5 -307q-6 -61 -6 -113q0 -138 43.5 -199t140.5 -61 q115 0 171 86t73 287z" />
<glyph unicode="p" horiz-adv-x="1021" d="M287 -348h-174l118 1372h144l4 -115q99 129 264 129q148 0 213.5 -90.5t65.5 -263.5q0 -62 -7 -127q-14 -161 -44 -266t-86.5 -175.5t-142 -100t-212.5 -29.5q-41 0 -115 8zM602 891q-52 0 -93.5 -23t-66 -57t-42 -80.5t-25 -85.5t-10.5 -80l-37 -426q46 -6 137 -6 q133 0 192.5 100.5t79.5 323.5q6 56 6 123q0 109 -32.5 160t-108.5 51z" />
<glyph unicode="q" horiz-adv-x="1032" d="M152 467q28 305 141.5 438t355.5 133q143 0 285 -45l-117 -1341h-174l39 457q-101 -123 -264 -123q-143 0 -208 90t-65 274q0 45 7 117zM463 133q47 0 86 18t65.5 46.5t46.5 67t31 75.5t17 76l41 465q-52 10 -136 10q-72 0 -122.5 -28.5t-82.5 -88t-50 -137.5t-29 -191 q-4 -70 -4 -98q0 -109 32.5 -162t104.5 -53z" />
<glyph unicode="r" horiz-adv-x="692" d="M709 1026l-15 -178q-70 16 -123 16q-49 0 -87.5 -27t-62 -72t-36.5 -95t-18 -105l-50 -565h-174l88 1024h144l4 -127q91 141 223 141q49 0 107 -12z" />
<glyph unicode="s" horiz-adv-x="823" d="M727 338q0 -182 -89.5 -267t-283.5 -85q-131 0 -243 30l14 150q155 -33 256 -33q47 0 81 17.5t51 46.5t24.5 58.5t7.5 61.5q0 56 -25.5 84t-91.5 43q-264 60 -264 258q0 178 93.5 257t272.5 79q105 0 222 -30l-13 -150l-32 8t-34 8l-32.5 6.5t-39 6t-41.5 3t-52 1.5 q-164 0 -164 -166q0 -49 29 -77t92 -40q138 -28 200 -95.5t62 -174.5z" />
<glyph unicode="t" horiz-adv-x="657" d="M651 870h-237l-52 -579q-4 -40 -4 -60q0 -38 21 -67t72 -29q63 0 137 19l-13 -144q-74 -22 -178 -22q-112 0 -163.5 61.5t-51.5 167.5q0 5 6 80l52 573h-134l13 154h133l22 246h175l-23 -246h238z" />
<glyph unicode="u" d="M221 1024h174l-57 -676q-4 -58 -4 -80q0 -67 27.5 -101t103.5 -34q57 0 100 28t67 75.5t37 95.5t17 100l49 592h174l-88 -1024h-143l-4 109q-89 -123 -250 -123q-148 0 -205 69.5t-57 210.5q0 29 4 103z" />
<glyph unicode="v" horiz-adv-x="946" d="M942 1024l-362 -1024h-252l-189 1024h183l145 -883l293 883h182z" />
<glyph unicode="w" horiz-adv-x="1372" d="M1358 1024l-291 -1024h-268l-82 555l-189 -555h-262l-116 1024h178l86 -893l245 709h175l108 -709l244 893h172z" />
<glyph unicode="x" horiz-adv-x="950" d="M858 0h-203l-161 375l-238 -375h-195l342 528l-229 496h201l143 -334l209 334h193l-320 -487z" />
<glyph unicode="y" horiz-adv-x="948" d="M944 1024l-393 -1114q-24 -68 -45 -110.5t-53 -82t-76.5 -57.5t-104.5 -18q-39 0 -114 12l12 149q58 -8 106 -8q55 0 91 92l43 113h-41l-230 1024h185l165 -846l273 846h182z" />
<glyph unicode="z" horiz-adv-x="825" d="M774 842l-498 -690h418l-12 -152h-610l12 164l504 708h-400l13 152h590z" />
<glyph unicode="{" horiz-adv-x="665" d="M373 -39q0 -39 20.5 -56.5t65.5 -17.5q21 0 63 7l-12 -140q-50 -10 -92 -10q-107 0 -155 52t-48 159q0 34 4 70l29 346q6 69 6 75q0 50 -13 83t-37.5 48.5t-48 21t-53.5 5.5l21 225q27 0 48 3.5t45.5 15.5t41.5 32.5t30 56.5t17 85l37 408q6 72 20 118t41.5 79.5t72.5 48 t112 14.5q35 0 90 -11l-12 -139q-36 6 -62 6q-48 0 -72 -20.5t-28 -65.5l-43 -499q-4 -51 -21.5 -92.5t-41 -68.5t-55 -46t-60.5 -28.5t-60 -14.5q74 -8 135.5 -67t61.5 -150q0 -8 -6 -62l-35 -397q-1 -13 -2.5 -30.5t-2.5 -29.5t-1 -14z" />
<glyph unicode="|" horiz-adv-x="593" d="M338 -225h-164l164 1884h164z" />
<glyph unicode="}" horiz-adv-x="665" d="M645 829l-20 -225q-33 0 -59.5 -6.5t-54.5 -25t-46 -59t-23 -101.5l-34 -408q-12 -145 -68 -202.5t-178 -57.5q-42 0 -92 10l12 140q42 -7 63 -7q49 0 71.5 20t27.5 66l45 500q6 61 30 109.5t59.5 77t72 44t73.5 19.5q-74 12 -133 67t-59 146q0 15 4 65l35 410 q1 13 2.5 28.5t2.5 25.5t1 12q0 69 -86 69q-30 0 -66 -6l13 139q55 11 94 11q107 0 155 -52t48 -159q0 -27 -7 -90l-28 -326q-6 -69 -6 -76q0 -49 13 -82t37 -48.5t47.5 -21.5t53.5 -6z" />
<glyph unicode="~" horiz-adv-x="1044" d="M201 545l14 160q68 40 115.5 53.5t97.5 13.5q56 0 147.5 -40t143.5 -40q84 0 196 74l-14 -160q-103 -67 -213 -67q-57 0 -145.5 39.5t-145.5 39.5q-86 0 -196 -73z" />
<glyph unicode="&#xa1;" horiz-adv-x="512" d="M221 1024h205l-18 -205h-205zM201 598h174l-88 -1008h-174z" />
<glyph unicode="&#xa2;" horiz-adv-x="962" d="M610 -205h-164l17 193q-63 6 -106.5 26t-76 62.5t-48 113.5t-15.5 175q0 328 81.5 485t254.5 182l18 197h164l-18 -201q59 -8 131 -24l-12 -154q-128 33 -236 33q-91 0 -136 -85.5t-65 -308.5q-6 -73 -6 -127q0 -71 10 -117t30.5 -69t44 -31t59.5 -8q29 0 56 2t56.5 7 t42.5 7.5t47 10t37 8.5l-14 -154q-65 -19 -135 -28z" />
<glyph unicode="&#xa3;" horiz-adv-x="962" d="M520 975l-12 -129h264l-14 -150h-262l-50 -546h408l-12 -150h-727l12 150h141l49 546h-143l14 150h144l10 115q14 153 40 246.5t76.5 148t117.5 73.5t174 19q52 0 194 -27l-12 -151q-114 24 -182 24q-86 0 -128 -22t-65.5 -88.5t-36.5 -208.5z" />
<glyph unicode="&#xa4;" horiz-adv-x="1167" d="M1028 96l-123 121q-112 -84 -280 -84t-283 84l-121 -121l-115 115l130 129q-62 114 -62 274q0 159 62 273l-130 131l115 115l121 -121q119 84 283 84t280 -84l123 121l115 -115l-129 -131q61 -113 61 -273q0 -161 -61 -274l129 -129zM897 614q0 161 -76 249.5t-196 88.5 t-196.5 -89t-76.5 -249t76.5 -249t196.5 -89t196 88.5t76 249.5z" />
<glyph unicode="&#xa5;" horiz-adv-x="962" d="M838 236h-267l-20 -236h-184l20 236h-266l12 153h266l15 154h-267l13 153h262l-277 738h193l201 -560l297 560h190l-410 -738h261l-13 -153h-266l-14 -154h266z" />
<glyph unicode="&#xa6;" horiz-adv-x="593" d="M338 -225h-164l64 737h163zM438 922h-164l64 737h164z" />
<glyph unicode="&#xa7;" horiz-adv-x="962" d="M209 672q0 90 40.5 162.5t110.5 109.5q-36 26 -55.5 76.5t-19.5 103.5q0 87 28 151t79 101t116.5 54.5t146.5 17.5q37 0 74.5 -4.5t56.5 -8.5t51.5 -13t34.5 -9l-12 -147q-9 2 -33 8.5t-34.5 9t-33 7.5t-39.5 7t-41.5 3.5t-51.5 1.5q-48 0 -83 -17t-53 -43.5t-26 -53 t-8 -52.5q0 -105 118 -125q136 -22 198.5 -91.5t62.5 -166.5q0 -177 -158 -267q84 -56 84 -178q0 -323 -373 -323q-25 0 -50.5 2t-43.5 4t-39.5 6.5t-32 7t-29 7t-22.5 5.5l14 150q6 -2 32 -9t34.5 -9t32 -7t40 -6.5t41.5 -3.5t52 -2q74 0 123 48.5t49 115.5q0 109 -119 127 q-140 24 -201 85.5t-61 164.5zM659 745q0 58 -34.5 92t-128.5 50q-47 -17 -79 -76.5t-32 -124.5q0 -58 33 -90.5t123 -46.5q41 18 79.5 78.5t38.5 117.5z" />
<glyph unicode="&#xa8;" horiz-adv-x="727" d="M741 1219h-174l15 163h174zM332 1219h-174l14 163h174z" />
<glyph unicode="&#xa9;" horiz-adv-x="1638" d="M1006 432v-98q-71 -17 -125 -17q-51 0 -87.5 10.5t-67 37.5t-49 73.5t-28.5 118.5t-10 172q0 122 15.5 200t50.5 118.5t78 54.5t110 14q23 0 62 -5.5t51 -10.5v-99q-60 13 -129 13q-28 0 -44.5 -4.5t-33 -20.5t-25 -47.5t-13.5 -85.5t-5 -135q0 -84 5.5 -140t14 -88 t25.5 -48.5t33.5 -20.5t44.5 -4q69 0 127 12zM1505 717q0 -175 -34 -307t-108 -228.5t-197.5 -146t-295.5 -49.5q-341 0 -498 186t-157 545q0 731 655 731q139 0 246 -33t180 -94t120 -152t68 -202t21 -250zM1348 717q0 95 -8.5 169.5t-29 143.5t-56 118.5t-87.5 86.5 t-126.5 55.5t-170.5 18.5q-143 0 -241.5 -40t-153.5 -119.5t-78.5 -184t-23.5 -248.5q0 -113 14 -201t49 -163t91 -124t142 -76.5t201 -27.5q96 0 170.5 18.5t126.5 55.5t87.5 86.5t56 118.5t29 143.5t8.5 169.5z" />
<glyph unicode="&#xaa;" horiz-adv-x="808" d="M184 1018q22 227 109 328.5t260 101.5q40 0 99.5 -11t97.5 -24l-50 -569v-10q0 -58 60 -58l-8 -108h-31q-108 0 -137 84q-67 -95 -197 -95q-108 0 -157.5 67t-49.5 204q0 24 4 90zM420 776q65 0 102.5 44t42.5 108l35 397q-36 4 -72 4q-204 0 -204 -416q0 -78 21 -107.5 t75 -29.5zM631 0h-514l12 154h514z" />
<glyph unicode="&#xab;" horiz-adv-x="952" d="M467 188h-135l-146 424l220 424h137l-168 -424zM795 188h-136l-145 424l219 424h137l-168 -424z" />
<glyph unicode="&#xac;" horiz-adv-x="1239" d="M1104 217h-174l28 346h-796l12 154h973z" />
<glyph unicode="&#xad;" horiz-adv-x="1013" d="M868 563h-665l12 154h666z" />
<glyph unicode="&#xae;" horiz-adv-x="1638" d="M1505 717q0 -175 -34 -307t-108 -228.5t-197.5 -146t-295.5 -49.5q-341 0 -498 186t-157 545q0 731 655 731q139 0 246 -33t180 -94t120 -152t68 -202t21 -250zM1348 717q0 95 -8.5 169.5t-29 143.5t-56 118.5t-87.5 86.5t-126.5 55.5t-170.5 18.5q-143 0 -241.5 -40 t-153.5 -119.5t-78.5 -184t-23.5 -248.5q0 -113 14 -201t49 -163t91 -124t142 -76.5t201 -27.5q96 0 170.5 18.5t126.5 55.5t87.5 86.5t56 118.5t29 143.5t8.5 169.5zM1085 891q0 -180 -112 -227l153 -338h-125l-137 321h-78v-321h-110v788q90 6 184 6q122 0 173.5 -59.5 t51.5 -169.5zM973 883q0 83 -20 113t-79 30l-88 -4v-277h88q52 0 75.5 26.5t23.5 111.5z" />
<glyph unicode="&#xaf;" horiz-adv-x="665" d="M680 1239h-522l14 143h522z" />
<glyph unicode="&#xb0;" horiz-adv-x="743" d="M610 1161q0 156 -145 156q-49 0 -85 -19.5t-55.5 -52t-28.5 -69t-9 -76.5q0 -72 33 -119t110 -47q50 0 86 20.5t55.5 55.5t28.5 72t10 79zM762 1169q0 -76 -19.5 -140t-59.5 -115.5t-107 -81t-156 -29.5q-144 0 -213.5 77t-69.5 203q0 76 19 140t58.5 114t106 78.5 t154.5 28.5q148 0 217.5 -74.5t69.5 -200.5z" />
<glyph unicode="&#xb1;" horiz-adv-x="1126" d="M981 563h-307l-25 -270h-164l25 270h-307l12 154h307l29 323h164l-29 -323h307zM932 0h-778l12 154h778z" />
<glyph unicode="&#xb2;" horiz-adv-x="839" d="M653 420h-503l14 145l256 322q86 113 111.5 170.5t25.5 156.5q0 49 -26 74t-87 25q-67 0 -190 -25l10 133q2 0 36 6.5t76.5 11.5t78.5 5q125 0 189.5 -63.5t64.5 -176.5q0 -105 -30.5 -174.5t-119.5 -189.5l-229 -287h336z" />
<glyph unicode="&#xb3;" horiz-adv-x="839" d="M678 698q-14 -157 -88 -222.5t-209 -65.5q-50 0 -117.5 8.5t-83.5 13.5l13 131q105 -24 190 -24q71 0 108 56.5t37 164.5q0 71 -26 104t-92 33h-117l10 129h103q147 0 147 193q0 57 -25 76.5t-82 19.5q-70 0 -182 -25l10 131q92 23 189 23q53 0 94.5 -10.5t76 -34.5 t53 -70t18.5 -112q0 -112 -34 -169t-106 -81q56 -12 86.5 -68t30.5 -141q0 -32 -4 -60z" />
<glyph unicode="&#xb4;" horiz-adv-x="620" d="M350 1188h-176l238 276h223z" />
<glyph unicode="&#xb5;" d="M332 270q0 -67 28 -102t105 -35q57 0 100 28t67 75.5t37 95.5t17 100l49 592h174l-88 -1024h-143l-4 109q-89 -123 -250 -123q-55 0 -117 16l-31 -350h-174l119 1372h174l-57 -672q-6 -75 -6 -82z" />
<glyph unicode="&#xb6;" horiz-adv-x="1044" d="M1006 1434l-136 -1522q-15 -127 -77.5 -198.5t-192.5 -71.5q-86 0 -174 10l12 145q86 -8 148 -8q51 0 83 29.5t38 83.5l135 1532h164zM682 909l-78 -909h-168l66 766h-49q-44 0 -80.5 7t-72.5 26t-60 50t-39 83t-15 121q0 103 28 181.5t76.5 123.5t106 67.5t123.5 22.5 q49 0 102.5 -3.5t81.5 -6.5l29 -4l-12 -144q-119 13 -148 13q-129 0 -180 -56.5t-51 -199.5q0 -60 35 -99t98 -39h207z" />
<glyph unicode="&#xb7;" horiz-adv-x="471" d="M362 532h-204l18 205h205z" />
<glyph unicode="&#xb8;" horiz-adv-x="618" d="M78 -395l12 127q60 -13 111 -13q46 0 67 14.5t21 55.5q0 29 -34 42t-126 13l64 258h133l-37 -157q84 -10 120.5 -44t36.5 -100q0 -106 -64.5 -158.5t-174.5 -52.5q-52 0 -129 15z" />
<glyph unicode="&#xb9;" horiz-adv-x="839" d="M688 420h-481l12 135h180l66 733l-205 -78l12 146l189 78h170l-78 -879h147z" />
<glyph unicode="&#xba;" horiz-adv-x="851" d="M641 1040q6 58 6 107q0 91 -28.5 136.5t-98.5 45.5q-96 0 -136 -99t-40 -290q0 -86 29 -125t100 -39q89 0 122 59t46 205zM795 1143q0 -10 -1 -27t-3 -37.5t-3 -29.5q-13 -154 -51 -239.5t-102 -119t-172 -33.5q-130 0 -196 70t-66 244q0 249 77 363t252 114 q265 0 265 -305zM684 0h-565l12 154h565z" />
<glyph unicode="&#xbb;" horiz-adv-x="952" d="M612 188h-137l168 424l-90 424h133l145 -424zM285 188h-138l168 424l-90 424h133l146 -424z" />
<glyph unicode="&#xbc;" horiz-adv-x="1792" d="M668 420h-482l13 135h180l65 733l-204 -78l12 146l188 78h170l-78 -879h148zM1628 240h-102l-23 -240h-151l22 240h-301l12 151l207 623h142l-207 -643h157l27 293h152l-27 -293h102zM1446 1659l-815 -1864h-164l815 1864h164z" />
<glyph unicode="&#xbd;" horiz-adv-x="1792" d="M668 420h-482l13 135h180l65 733l-204 -78l12 146l188 78h170l-78 -879h148zM1645 0h-504l14 145l256 322q86 113 111.5 171t25.5 157q0 49 -25.5 73.5t-86.5 24.5q-69 0 -191 -25l10 133q2 0 36 6.5t76.5 11.5t78.5 5q125 0 189.5 -63.5t64.5 -176.5 q0 -105 -30.5 -174.5t-119.5 -189.5l-229 -287h336zM1456 1659l-815 -1864h-164l815 1864h164z" />
<glyph unicode="&#xbe;" horiz-adv-x="1792" d="M692 698q-14 -157 -88 -222.5t-209 -65.5q-50 0 -116.5 8.5t-83.5 13.5l12 131q105 -24 190 -24q71 0 108.5 56.5t37.5 164.5q0 71 -26.5 104t-92.5 33h-117l10 129h103q147 0 147 193q0 57 -25 76.5t-81 19.5q-69 0 -182 -25l10 131q92 23 188 23q53 0 94.5 -10.5 t76 -34.5t53 -70t18.5 -112q0 -112 -33.5 -169t-105.5 -81q56 -12 86 -68t30 -141q0 -32 -4 -60zM1614 240h-103l-22 -240h-152l23 240h-301l12 151l207 623h141l-207 -643h158l27 293h151l-26 -293h102zM1423 1659l-815 -1864h-164l816 1864h163z" />
<glyph unicode="&#xbf;" horiz-adv-x="737" d="M387 1024h205l-17 -205h-204zM43 -135v59q0 85 38 164.5t146 192.5l125 129l15 188h174l-21 -248l-135 -143q-39 -42 -51 -54.5t-38.5 -42.5t-32 -39t-20 -32.5t-16.5 -35.5t-7.5 -35.5t-6 -44.5t-0.5 -52q0 -78 41.5 -110.5t118.5 -32.5q29 0 66.5 3.5t64 7.5t67 10.5 t54.5 8.5l-13 -149q-134 -33 -235 -33q-166 0 -250 64.5t-84 224.5z" />
<glyph unicode="&#xc0;" horiz-adv-x="1024" d="M799 1487h-170l-250 235h227zM709 516l-105 782l-233 -782h338zM952 0h-178l-47 362h-403l-111 -362h-182l467 1434h235z" />
<glyph unicode="&#xc1;" horiz-adv-x="1024" d="M608 1487h-170l234 235h227zM709 516l-105 782l-233 -782h338zM952 0h-178l-47 362h-403l-111 -362h-182l467 1434h235z" />
<glyph unicode="&#xc2;" horiz-adv-x="1024" d="M940 1495h-199l-110 131l-135 -131h-197l246 236h188zM709 516l-105 782l-233 -782h338zM952 0h-178l-47 362h-403l-111 -362h-182l467 1434h235z" />
<glyph unicode="&#xc3;" horiz-adv-x="1024" d="M709 516l-105 782l-233 -782h338zM952 0h-178l-47 362h-403l-111 -362h-182l467 1434h235zM358 1503l15 150q87 67 182 67q50 0 118.5 -40t106.5 -40q50 0 86 17t84 57l-12 -149q-76 -68 -182 -68q-43 0 -81 20t-73.5 40t-71.5 20q-83 0 -172 -74z" />
<glyph unicode="&#xc4;" horiz-adv-x="1024" d="M709 516l-105 782l-233 -782h338zM952 0h-178l-47 362h-403l-111 -362h-182l467 1434h235zM913 1505h-174l15 164h174zM504 1505h-174l14 164h174z" />
<glyph unicode="&#xc5;" horiz-adv-x="1024" d="M821 1542q-9 -107 -80 -166l211 -1376h-178l-47 362h-403l-111 -362h-182l450 1384q-49 55 -49 136q0 101 57 166t154 65q82 0 131 -50.5t49 -133.5q0 -4 -1 -12.5t-1 -12.5zM709 516l-105 782l-233 -782h338zM702 1544v19q0 82 -69 82q-45 0 -64.5 -34t-19.5 -81 q0 -86 67 -86q46 0 64 27t22 73z" />
<glyph unicode="&#xc6;" horiz-adv-x="1521" d="M1389 0h-611l-10 362h-406l-147 -362h-184l610 1434h832l-15 -150h-551l15 -469h485l-12 -149h-467l16 -516h457zM745 1284l-319 -764h338z" />
<glyph unicode="&#xc7;" horiz-adv-x="866" d="M311 -395l13 127q60 -13 110 -13q46 0 67 14.5t21 55.5q0 29 -34 42t-126 13l37 154q-121 29 -178 140.5t-57 346.5q0 110 12 254q16 182 43 306t64.5 204t96.5 123.5t127 59.5t169 16q38 0 105.5 -12t95.5 -21l-15 -151q-124 30 -235 30q-60 0 -99 -19.5t-74 -78.5 t-58 -173.5t-40 -297.5q-14 -231 -14 -262q0 -82 8.5 -140.5t23 -94t39 -55.5t51 -27t64.5 -7q103 0 240 31l-14 -150q-116 -31 -224 -34l-8 -41q85 -10 121.5 -44t36.5 -100q0 -106 -65 -158.5t-175 -52.5q-52 0 -129 15z" />
<glyph unicode="&#xc8;" horiz-adv-x="958" d="M778 1487h-170l-250 235h228zM825 0h-671l125 1434h671l-14 -150h-494l-41 -469h443l-13 -149h-442l-45 -516h494z" />
<glyph unicode="&#xc9;" horiz-adv-x="958" d="M651 1487h-170l234 235h227zM825 0h-671l125 1434h671l-14 -150h-494l-41 -469h443l-13 -149h-442l-45 -516h494z" />
<glyph unicode="&#xca;" horiz-adv-x="958" d="M940 1495h-199l-110 131l-135 -131h-197l246 236h188zM825 0h-671l125 1434h671l-14 -150h-494l-41 -469h443l-13 -149h-442l-45 -516h494z" />
<glyph unicode="&#xcb;" horiz-adv-x="958" d="M825 0h-671l125 1434h671l-14 -150h-494l-41 -469h443l-13 -149h-442l-45 -516h494zM918 1505h-175l15 164h174zM508 1505h-174l14 164h174z" />
<glyph unicode="&#xcc;" horiz-adv-x="649" d="M627 1487h-170l-250 235h227zM537 0h-465l12 150h143l99 1134h-144l15 150h465l-15 -150h-143l-98 -1134h143z" />
<glyph unicode="&#xcd;" horiz-adv-x="649" d="M403 1487h-170l234 235h227zM537 0h-465l12 150h143l99 1134h-144l15 150h465l-15 -150h-143l-98 -1134h143z" />
<glyph unicode="&#xce;" horiz-adv-x="649" d="M754 1495h-195l-110 131l-136 -131h-200l245 236h189zM537 0h-465l12 150h143l99 1134h-144l15 150h465l-15 -150h-143l-98 -1134h143z" />
<glyph unicode="&#xcf;" horiz-adv-x="649" d="M537 0h-465l12 150h143l99 1134h-144l15 150h465l-15 -150h-143l-98 -1134h143zM729 1505h-174l14 164h174zM319 1505h-174l15 164h174z" />
<glyph unicode="&#xd0;" horiz-adv-x="1097" d="M1008 739q-16 -183 -43.5 -313t-65.5 -215.5t-94.5 -135t-121.5 -69.5t-155 -20q-71 0 -159.5 3.5t-141.5 6.5l-53 4l57 666h-143l12 153h146l53 615q191 14 332 14q76 0 131.5 -11.5t106 -43.5t82 -87t49.5 -144.5t18 -213.5q0 -79 -10 -209zM823 725q13 149 13 233 q0 83 -8.5 144.5t-23 98.5t-37 59t-47 30t-56.5 8l-199 -8l-41 -471h229l-12 -153h-231l-45 -523q108 -8 194 -8q50 0 90 29.5t74.5 96.5t60 183.5t39.5 280.5z" />
<glyph unicode="&#xd1;" horiz-adv-x="1120" d="M926 0h-293l-203 1282l-111 -1282h-165l125 1434h290l203 -1282l113 1282h166zM389 1503l14 150q87 67 183 67q50 0 118.5 -40t106.5 -40q50 0 86 17t84 57l-12 -149q-76 -68 -183 -68q-43 0 -81 20t-73 40t-71 20q-83 0 -172 -74z" />
<glyph unicode="&#xd2;" horiz-adv-x="1122" d="M817 1487h-170l-250 235h228zM848 723q14 168 14 246q0 184 -48.5 256.5t-160.5 72.5q-94 0 -150 -50t-91 -174t-56 -351q-12 -210 -12 -236q0 -191 48.5 -271.5t158.5 -80.5q94 0 151.5 56t92 182.5t53.5 349.5zM1032 733q-14 -159 -35 -271.5t-57 -207t-89 -151 t-130.5 -87t-181.5 -30.5q-206 0 -289.5 132t-83.5 417q0 53 10 198q13 152 33 260t56 198.5t89 144.5t130.5 83t181.5 29q204 0 290 -121.5t86 -382.5q0 -84 -10 -211z" />
<glyph unicode="&#xd3;" horiz-adv-x="1122" d="M700 1487h-170l234 235h227zM848 723q14 168 14 246q0 184 -48.5 256.5t-160.5 72.5q-94 0 -150 -50t-91 -174t-56 -351q-12 -210 -12 -236q0 -191 48.5 -271.5t158.5 -80.5q94 0 151.5 56t92 182.5t53.5 349.5zM1032 733q-14 -159 -35 -271.5t-57 -207t-89 -151 t-130.5 -87t-181.5 -30.5q-206 0 -289.5 132t-83.5 417q0 53 10 198q13 152 33 260t56 198.5t89 144.5t130.5 83t181.5 29q204 0 290 -121.5t86 -382.5q0 -84 -10 -211z" />
<glyph unicode="&#xd4;" horiz-adv-x="1122" d="M991 1495h-198l-111 131l-135 -131h-197l246 236h188zM848 723q14 168 14 246q0 184 -48.5 256.5t-160.5 72.5q-94 0 -150 -50t-91 -174t-56 -351q-12 -210 -12 -236q0 -191 48.5 -271.5t158.5 -80.5q94 0 151.5 56t92 182.5t53.5 349.5zM1032 733q-14 -159 -35 -271.5 t-57 -207t-89 -151t-130.5 -87t-181.5 -30.5q-206 0 -289.5 132t-83.5 417q0 53 10 198q13 152 33 260t56 198.5t89 144.5t130.5 83t181.5 29q204 0 290 -121.5t86 -382.5q0 -84 -10 -211z" />
<glyph unicode="&#xd5;" horiz-adv-x="1122" d="M848 723q14 168 14 246q0 184 -48.5 256.5t-160.5 72.5q-94 0 -150 -50t-91 -174t-56 -351q-12 -210 -12 -236q0 -191 48.5 -271.5t158.5 -80.5q94 0 151.5 56t92 182.5t53.5 349.5zM1032 733q-14 -159 -35 -271.5t-57 -207t-89 -151t-130.5 -87t-181.5 -30.5 q-206 0 -289.5 132t-83.5 417q0 53 10 198q13 152 33 260t56 198.5t89 144.5t130.5 83t181.5 29q204 0 290 -121.5t86 -382.5q0 -84 -10 -211zM391 1503l15 150q87 67 182 67q50 0 118.5 -40t106.5 -40q50 0 86 17t84 57l-12 -149q-76 -68 -183 -68q-43 0 -81 20t-73 40 t-71 20q-83 0 -172 -74z" />
<glyph unicode="&#xd6;" horiz-adv-x="1122" d="M965 1505h-174l14 164h174zM555 1505h-174l14 164h174zM848 723q14 168 14 246q0 184 -48.5 256.5t-160.5 72.5q-94 0 -150 -50t-91 -174t-56 -351q-12 -210 -12 -236q0 -191 48.5 -271.5t158.5 -80.5q94 0 151.5 56t92 182.5t53.5 349.5zM1032 733q-14 -159 -35 -271.5 t-57 -207t-89 -151t-130.5 -87t-181.5 -30.5q-206 0 -289.5 132t-83.5 417q0 53 10 198q13 152 33 260t56 198.5t89 144.5t130.5 83t181.5 29q204 0 290 -121.5t86 -382.5q0 -84 -10 -211z" />
<glyph unicode="&#xd7;" horiz-adv-x="1126" d="M840 281l-240 237l-240 -237l-114 114l237 240l-237 239l114 115l240 -237l240 237l114 -115l-237 -239l237 -240z" />
<glyph unicode="&#xd8;" horiz-adv-x="1122" d="M1032 733q-14 -159 -35 -271.5t-57 -207t-89 -151t-130.5 -87t-181.5 -30.5q-71 0 -133 16l-74 -188h-154l103 264q-115 120 -115 457q0 53 10 198q13 152 33 260t56 198.5t89 144.5t130.5 83t181.5 29q76 0 137 -18l74 190h155l-102 -264q112 -115 112 -412 q0 -84 -10 -211zM344 487q0 -119 18 -196l383 991q-43 16 -92 16q-94 0 -150 -50t-91 -174t-56 -351q-12 -210 -12 -236zM848 723q14 168 14 246q0 100 -16 172l-383 -989q35 -17 88 -17q94 0 151.5 56t92 182.5t53.5 349.5z" />
<glyph unicode="&#xd9;" horiz-adv-x="1095" d="M797 1487h-170l-250 235h227zM1036 1434l-92 -1055q-18 -203 -123.5 -298t-294.5 -95q-160 0 -256 84t-96 254q0 39 4 75l90 1035h178l-92 -1051q-4 -66 -4 -72q0 -89 49.5 -132.5t139.5 -43.5q96 0 155 50.5t68 154.5l96 1094h178z" />
<glyph unicode="&#xda;" horiz-adv-x="1095" d="M700 1487h-170l234 235h227zM1036 1434l-92 -1055q-18 -203 -123.5 -298t-294.5 -95q-160 0 -256 84t-96 254q0 39 4 75l90 1035h178l-92 -1051q-4 -66 -4 -72q0 -89 49.5 -132.5t139.5 -43.5q96 0 155 50.5t68 154.5l96 1094h178z" />
<glyph unicode="&#xdb;" horiz-adv-x="1095" d="M981 1495h-199l-110 131l-135 -131h-197l246 236h188zM1036 1434l-92 -1055q-18 -203 -123.5 -298t-294.5 -95q-160 0 -256 84t-96 254q0 39 4 75l90 1035h178l-92 -1051q-4 -66 -4 -72q0 -89 49.5 -132.5t139.5 -43.5q96 0 155 50.5t68 154.5l96 1094h178z" />
<glyph unicode="&#xdc;" horiz-adv-x="1095" d="M954 1505h-174l15 164h174zM545 1505h-174l14 164h174zM1036 1434l-92 -1055q-18 -203 -123.5 -298t-294.5 -95q-160 0 -256 84t-96 254q0 39 4 75l90 1035h178l-92 -1051q-4 -66 -4 -72q0 -89 49.5 -132.5t139.5 -43.5q96 0 155 50.5t68 154.5l96 1094h178z" />
<glyph unicode="&#xdd;" d="M659 1487h-170l234 235h227zM1069 1434l-440 -768l-58 -666h-184l57 666l-299 768h193l217 -596l324 596h190z" />
<glyph unicode="&#xde;" horiz-adv-x="1044" d="M963 717q-9 -107 -35 -184t-76.5 -133t-130.5 -83.5t-193 -27.5h-172l-24 -289h-178l125 1434h178l-25 -267l75 5t95 4q367 0 367 -363q0 -21 -6 -96zM782 727q4 58 4 78q0 116 -40.5 169.5t-133.5 53.5q-50 0 -98 -3t-71 -6l-23 -3l-51 -578h192q93 0 150 65.5t71 223.5 z" />
<glyph unicode="&#xdf;" horiz-adv-x="1062" d="M948 358q0 -192 -91.5 -282t-285.5 -90q-22 0 -70.5 6.5t-74.5 13.5l12 150q86 -23 152 -23q93 0 134.5 59.5t41.5 147.5q0 67 -30 108t-107 76q-77 37 -112.5 87t-35.5 126q0 131 69.5 194.5t197.5 84.5q30 73 30 147q0 58 -43.5 97.5t-132.5 39.5q-79 0 -129 -48.5 t-59 -145.5l-97 -1106h-174l95 1092q15 173 110.5 264.5t269.5 91.5q148 0 230 -75t82 -197q0 -35 -2.5 -63.5t-9.5 -60.5t-11 -48.5t-17 -58.5t-18 -60q-123 0 -174 -29.5t-51 -99.5q0 -26 18 -52t44 -36q239 -99 239 -310z" />
<glyph unicode="&#xe0;" horiz-adv-x="1019" d="M152 467q28 302 143.5 436.5t347.5 134.5q53 0 131.5 -14t130.5 -31l-65 -714q0 -1 -1 -10.5t-2 -25.5t-1 -32q0 -78 79 -78l-10 -133h-39q-140 0 -176 127q-95 -141 -282 -141q-138 0 -200.5 91.5t-62.5 270.5q0 47 7 119zM453 133q99 0 155 64t64 155l47 531 q-54 8 -111 8q-284 0 -284 -557q0 -104 30 -152.5t99 -48.5zM809 1188h-156l-256 276h224z" />
<glyph unicode="&#xe1;" horiz-adv-x="1019" d="M152 467q28 302 143.5 436.5t347.5 134.5q53 0 131.5 -14t130.5 -31l-65 -714q0 -1 -1 -10.5t-2 -25.5t-1 -32q0 -78 79 -78l-10 -133h-39q-140 0 -176 127q-95 -141 -282 -141q-138 0 -200.5 91.5t-62.5 270.5q0 47 7 119zM453 133q99 0 155 64t64 155l47 531 q-54 8 -111 8q-284 0 -284 -557q0 -104 30 -152.5t99 -48.5zM700 1188h-176l238 276h223z" />
<glyph unicode="&#xe2;" horiz-adv-x="1019" d="M152 467q28 302 143.5 436.5t347.5 134.5q53 0 131.5 -14t130.5 -31l-65 -714q0 -1 -1 -10.5t-2 -25.5t-1 -32q0 -78 79 -78l-10 -133h-39q-140 0 -176 127q-95 -141 -282 -141q-138 0 -200.5 91.5t-62.5 270.5q0 47 7 119zM453 133q99 0 155 64t64 155l47 531 q-54 8 -111 8q-284 0 -284 -557q0 -104 30 -152.5t99 -48.5zM975 1188h-199l-106 172l-140 -172h-196l254 276h180z" />
<glyph unicode="&#xe3;" horiz-adv-x="1019" d="M152 467q28 302 143.5 436.5t347.5 134.5q53 0 131.5 -14t130.5 -31l-65 -714q0 -1 -1 -10.5t-2 -25.5t-1 -32q0 -78 79 -78l-10 -133h-39q-140 0 -176 127q-95 -141 -282 -141q-138 0 -200.5 91.5t-62.5 270.5q0 47 7 119zM453 133q99 0 155 64t64 155l47 531 q-54 8 -111 8q-284 0 -284 -557q0 -104 30 -152.5t99 -48.5zM360 1217l15 149q88 68 182 68q50 0 118.5 -40t106.5 -40q50 0 86 17t84 56l-12 -149q-76 -68 -182 -68q-43 0 -81 20t-73.5 40t-71.5 20q-84 0 -172 -73z" />
<glyph unicode="&#xe4;" horiz-adv-x="1019" d="M152 467q28 302 143.5 436.5t347.5 134.5q53 0 131.5 -14t130.5 -31l-65 -714q0 -1 -1 -10.5t-2 -25.5t-1 -32q0 -78 79 -78l-10 -133h-39q-140 0 -176 127q-95 -141 -282 -141q-138 0 -200.5 91.5t-62.5 270.5q0 47 7 119zM453 133q99 0 155 64t64 155l47 531 q-54 8 -111 8q-284 0 -284 -557q0 -104 30 -152.5t99 -48.5zM938 1219h-174l14 163h174zM528 1219h-174l15 163h174z" />
<glyph unicode="&#xe5;" horiz-adv-x="1019" d="M152 467q28 302 143.5 436.5t347.5 134.5q53 0 131.5 -14t130.5 -31l-65 -714q0 -1 -1 -10.5t-2 -25.5t-1 -32q0 -78 79 -78l-10 -133h-39q-140 0 -176 127q-95 -141 -282 -141q-138 0 -200.5 91.5t-62.5 270.5q0 47 7 119zM453 133q99 0 155 64t64 155l47 531 q-54 8 -111 8q-284 0 -284 -557q0 -104 30 -152.5t99 -48.5zM829 1321q-8 -93 -64.5 -151t-150.5 -58q-77 0 -125.5 53.5t-48.5 132.5q0 101 57 166.5t154 65.5q82 0 131 -50.5t49 -133.5q0 -4 -1 -12.5t-1 -12.5zM711 1323v18q0 82 -70 82q-45 0 -64.5 -33.5t-19.5 -80.5 q0 -86 68 -86q46 0 64 27t22 73z" />
<glyph unicode="&#xe6;" horiz-adv-x="1464" d="M1368 758q0 -330 -399 -330q-77 0 -156 8v-74q0 -229 156 -229q38 0 72.5 2t67 7t51 8.5t49.5 10t38 7.5l-14 -148q-50 -14 -125.5 -24t-130.5 -10q-110 0 -179.5 29.5t-105.5 111.5q-93 -141 -307 -141q-39 0 -76 7t-75 26t-66 47.5t-46 76t-18 107.5q0 360 396 360 q74 0 162 -10q12 137 12 160q0 58 -38 94.5t-106 36.5q-138 0 -299 -45l13 151q139 41 280 41q194 0 264 -108q97 108 269 108q67 0 120.5 -15.5t89 -41.5t58.5 -62.5t33 -76t10 -84.5zM438 133q47 0 85 15t60 37t34 44t14 41l18 191q-92 10 -172 10q-81 0 -136.5 -47 t-55.5 -152q0 -76 37.5 -107.5t115.5 -31.5zM1055 893q-97 0 -154 -70.5t-78 -244.5q75 -7 115 -7q146 0 206 39.5t60 139.5q0 68 -31.5 105.5t-117.5 37.5z" />
<glyph unicode="&#xe7;" horiz-adv-x="827" d="M279 -395l12 127q60 -13 110 -13q46 0 67 14.5t21 55.5q0 29 -34 42t-125 13l37 150q-112 18 -164.5 100.5t-52.5 272.5q0 243 45.5 391.5t134 214t229.5 65.5q91 0 221 -32l-12 -154q-128 33 -236 33q-91 0 -135.5 -85t-64.5 -308q-6 -73 -6 -127q0 -71 9.5 -117 t30 -69.5t44 -31.5t59.5 -8q24 0 49.5 2t43.5 4t42.5 6.5t36.5 7t36.5 8t31.5 7.5l-15 -154q-101 -28 -196 -34l-9 -41q85 -10 121.5 -44t36.5 -100q0 -106 -64.5 -158.5t-174.5 -52.5q-52 0 -129 15z" />
<glyph unicode="&#xe8;" horiz-adv-x="933" d="M872 758q0 -175 -104.5 -257.5t-294.5 -82.5q-75 0 -151 8v-74q0 -54 8.5 -94.5t22.5 -64t34.5 -37.5t40.5 -18.5t45 -4.5q38 0 72.5 2t67 7t51.5 8t50 10t38 8l-15 -148q-50 -14 -125.5 -24t-130.5 -10q-63 0 -109.5 8.5t-90.5 32.5t-71 65.5t-43.5 110.5t-16.5 164 q0 182 27.5 312.5t81.5 208.5t128.5 114t173.5 36q83 0 145.5 -23.5t97.5 -64t51.5 -88.5t16.5 -104zM559 893q-96 0 -152 -74t-75 -252q61 -6 110 -6q143 0 205 44t62 145q0 67 -32 105t-118 38zM735 1188h-155l-256 276h223z" />
<glyph unicode="&#xe9;" horiz-adv-x="933" d="M872 758q0 -175 -104.5 -257.5t-294.5 -82.5q-75 0 -151 8v-74q0 -54 8.5 -94.5t22.5 -64t34.5 -37.5t40.5 -18.5t45 -4.5q38 0 72.5 2t67 7t51.5 8t50 10t38 8l-15 -148q-50 -14 -125.5 -24t-130.5 -10q-63 0 -109.5 8.5t-90.5 32.5t-71 65.5t-43.5 110.5t-16.5 164 q0 182 27.5 312.5t81.5 208.5t128.5 114t173.5 36q83 0 145.5 -23.5t97.5 -64t51.5 -88.5t16.5 -104zM559 893q-96 0 -152 -74t-75 -252q61 -6 110 -6q143 0 205 44t62 145q0 67 -32 105t-118 38zM631 1188h-176l237 276h223z" />
<glyph unicode="&#xea;" horiz-adv-x="933" d="M872 758q0 -175 -104.5 -257.5t-294.5 -82.5q-75 0 -151 8v-74q0 -54 8.5 -94.5t22.5 -64t34.5 -37.5t40.5 -18.5t45 -4.5q38 0 72.5 2t67 7t51.5 8t50 10t38 8l-15 -148q-50 -14 -125.5 -24t-130.5 -10q-63 0 -109.5 8.5t-90.5 32.5t-71 65.5t-43.5 110.5t-16.5 164 q0 182 27.5 312.5t81.5 208.5t128.5 114t173.5 36q83 0 145.5 -23.5t97.5 -64t51.5 -88.5t16.5 -104zM559 893q-96 0 -152 -74t-75 -252q61 -6 110 -6q143 0 205 44t62 145q0 67 -32 105t-118 38zM909 1188h-198l-107 172l-139 -172h-197l254 276h180z" />
<glyph unicode="&#xeb;" horiz-adv-x="933" d="M872 758q0 -175 -104.5 -257.5t-294.5 -82.5q-75 0 -151 8v-74q0 -54 8.5 -94.5t22.5 -64t34.5 -37.5t40.5 -18.5t45 -4.5q38 0 72.5 2t67 7t51.5 8t50 10t38 8l-15 -148q-50 -14 -125.5 -24t-130.5 -10q-63 0 -109.5 8.5t-90.5 32.5t-71 65.5t-43.5 110.5t-16.5 164 q0 182 27.5 312.5t81.5 208.5t128.5 114t173.5 36q83 0 145.5 -23.5t97.5 -64t51.5 -88.5t16.5 -104zM559 893q-96 0 -152 -74t-75 -252q61 -6 110 -6q143 0 205 44t62 145q0 67 -32 105t-118 38zM889 1219h-174l14 163h174zM479 1219h-174l14 163h175z" />
<glyph unicode="&#xec;" horiz-adv-x="501" d="M317 0h-174l88 1024h175zM469 1188h-156l-256 276h224z" />
<glyph unicode="&#xed;" horiz-adv-x="501" d="M317 0h-174l88 1024h175zM371 1188h-176l237 276h223z" />
<glyph unicode="&#xee;" horiz-adv-x="501" d="M317 0h-174l88 1024h175zM653 1188h-198l-107 172l-139 -172h-197l254 276h180z" />
<glyph unicode="&#xef;" horiz-adv-x="501" d="M317 0h-174l88 1024h175zM629 1219h-174l14 163h174zM219 1219h-174l14 163h174z" />
<glyph unicode="&#xf0;" horiz-adv-x="1030" d="M831 1536l-100 -150q101 -46 151 -147.5t50 -286.5q0 -75 -8 -155q-15 -174 -31.5 -295t-42 -215t-56.5 -149.5t-78 -91t-102.5 -48t-134.5 -12.5q-149 0 -236 91.5t-87 287.5q0 24 4 86q6 70 13 121t20 106.5t30.5 93.5t45.5 74t64.5 57.5t87.5 34t114 12.5 q121 0 219 -63q2 33 2 67q0 130 -26.5 200t-84.5 103l-80 -118h-168l105 155q-27 2 -178 11l12 143q169 -7 254 -21l74 109h167zM504 133q51 0 83.5 20.5t63 83.5t52.5 186t40 322q-104 58 -206 58q-43 0 -75.5 -17.5t-54 -46.5t-37 -78t-24 -102t-14.5 -127q-4 -58 -4 -82 q0 -109 40 -163t136 -54z" />
<glyph unicode="&#xf1;" horiz-adv-x="1036" d="M317 0h-174l88 1024h144l2 -119q96 133 266 133q153 0 216 -74t63 -221q0 -26 -4 -88l-56 -655h-174l55 655q7 70 7 78q0 76 -34 117t-118 41q-55 0 -99 -26t-70 -69.5t-41 -91t-19 -98.5zM358 1217l15 149q88 68 182 68q50 0 118.5 -40t106.5 -40q50 0 86 17t84 56 l-12 -149q-76 -68 -182 -68q-43 0 -81 20t-73.5 40t-71.5 20q-84 0 -172 -73z" />
<glyph unicode="&#xf2;" horiz-adv-x="1044" d="M940 647q0 -343 -104.5 -502t-335.5 -159q-85 0 -146.5 19.5t-108.5 66t-70 128.5t-23 201q0 331 104.5 484t335.5 153q348 0 348 -391zM756 502q6 80 6 141q0 138 -41 195t-141 57q-122 0 -174.5 -86t-71.5 -307q-6 -61 -6 -113q0 -138 43.5 -199t140.5 -61 q115 0 171 86t73 287zM766 1188h-156l-256 276h224z" />
<glyph unicode="&#xf3;" horiz-adv-x="1044" d="M940 647q0 -343 -104.5 -502t-335.5 -159q-85 0 -146.5 19.5t-108.5 66t-70 128.5t-23 201q0 331 104.5 484t335.5 153q348 0 348 -391zM756 502q6 80 6 141q0 138 -41 195t-141 57q-122 0 -174.5 -86t-71.5 -307q-6 -61 -6 -113q0 -138 43.5 -199t140.5 -61 q115 0 171 86t73 287zM641 1188h-176l237 276h224z" />
<glyph unicode="&#xf4;" horiz-adv-x="1044" d="M940 647q0 -343 -104.5 -502t-335.5 -159q-85 0 -146.5 19.5t-108.5 66t-70 128.5t-23 201q0 331 104.5 484t335.5 153q348 0 348 -391zM756 502q6 80 6 141q0 138 -41 195t-141 57q-122 0 -174.5 -86t-71.5 -307q-6 -61 -6 -113q0 -138 43.5 -199t140.5 -61 q115 0 171 86t73 287zM926 1188h-199l-106 172l-140 -172h-196l254 276h180z" />
<glyph unicode="&#xf5;" horiz-adv-x="1044" d="M940 647q0 -343 -104.5 -502t-335.5 -159q-85 0 -146.5 19.5t-108.5 66t-70 128.5t-23 201q0 331 104.5 484t335.5 153q348 0 348 -391zM756 502q6 80 6 141q0 138 -41 195t-141 57q-122 0 -174.5 -86t-71.5 -307q-6 -61 -6 -113q0 -138 43.5 -199t140.5 -61 q115 0 171 86t73 287zM330 1217l14 149q88 68 182 68q50 0 119 -40t107 -40q50 0 86 17t84 56l-13 -149q-76 -68 -182 -68q-43 0 -81 20t-73 40t-71 20q-84 0 -172 -73z" />
<glyph unicode="&#xf6;" horiz-adv-x="1044" d="M940 647q0 -343 -104.5 -502t-335.5 -159q-85 0 -146.5 19.5t-108.5 66t-70 128.5t-23 201q0 331 104.5 484t335.5 153q348 0 348 -391zM756 502q6 80 6 141q0 138 -41 195t-141 57q-122 0 -174.5 -86t-71.5 -307q-6 -61 -6 -113q0 -138 43.5 -199t140.5 -61 q115 0 171 86t73 287zM901 1219h-174l14 163h174zM492 1219h-175l15 163h174z" />
<glyph unicode="&#xf7;" horiz-adv-x="1126" d="M981 563h-778l12 154h778zM655 133h-204l18 205h205zM727 942h-205l17 205h204z" />
<glyph unicode="&#xf8;" horiz-adv-x="1044" d="M940 647q0 -343 -104.5 -502t-335.5 -159q-48 0 -92 6l-72 -174h-160l96 229q-120 91 -120 354q0 331 104.5 484t335.5 153q46 0 94 -10l74 178h158l-99 -235q121 -95 121 -324zM328 389q0 -102 22 -158l277 660q-28 4 -47 4q-122 0 -174.5 -86t-71.5 -307 q-6 -61 -6 -113zM756 502q6 80 6 141q0 89 -19 148l-276 -660q14 -2 45 -2q115 0 171 86t73 287z" />
<glyph unicode="&#xf9;" d="M221 1024h174l-57 -676q-4 -58 -4 -80q0 -67 27.5 -101t103.5 -34q57 0 100 28t67 75.5t37 95.5t17 100l49 592h174l-88 -1024h-143l-4 109q-89 -123 -250 -123q-148 0 -205 69.5t-57 210.5q0 29 4 103zM741 1188h-155l-256 276h223z" />
<glyph unicode="&#xfa;" d="M221 1024h174l-57 -676q-4 -58 -4 -80q0 -67 27.5 -101t103.5 -34q57 0 100 28t67 75.5t37 95.5t17 100l49 592h174l-88 -1024h-143l-4 109q-89 -123 -250 -123q-148 0 -205 69.5t-57 210.5q0 29 4 103zM635 1188h-176l237 276h224z" />
<glyph unicode="&#xfb;" d="M221 1024h174l-57 -676q-4 -58 -4 -80q0 -67 27.5 -101t103.5 -34q57 0 100 28t67 75.5t37 95.5t17 100l49 592h174l-88 -1024h-143l-4 109q-89 -123 -250 -123q-148 0 -205 69.5t-57 210.5q0 29 4 103zM905 1188h-198l-107 172l-139 -172h-197l254 276h180z" />
<glyph unicode="&#xfc;" d="M221 1024h174l-57 -676q-4 -58 -4 -80q0 -67 27.5 -101t103.5 -34q57 0 100 28t67 75.5t37 95.5t17 100l49 592h174l-88 -1024h-143l-4 109q-89 -123 -250 -123q-148 0 -205 69.5t-57 210.5q0 29 4 103zM879 1219h-174l14 163h174zM469 1219h-174l14 163h174z" />
<glyph unicode="&#xfd;" horiz-adv-x="948" d="M944 1024l-393 -1114q-24 -68 -45 -110.5t-53 -82t-76.5 -57.5t-104.5 -18q-39 0 -114 12l12 149q58 -8 106 -8q55 0 91 92l43 113h-41l-230 1024h185l165 -846l273 846h182zM653 1188h-176l238 276h223z" />
<glyph unicode="&#xfe;" horiz-adv-x="1021" d="M287 -348h-174l155 1782h174l-45 -502q96 106 246 106q148 0 213.5 -90.5t65.5 -263.5q0 -62 -7 -127q-14 -161 -44 -266t-86.5 -175.5t-142 -100t-212.5 -29.5q-41 0 -115 8zM602 891q-57 0 -101.5 -26t-70.5 -68.5t-40.5 -88.5t-18.5 -94l-43 -475q49 -6 137 -6 q133 0 192.5 100.5t79.5 323.5q6 56 6 123q0 109 -32.5 160t-108.5 51z" />
<glyph unicode="&#xff;" horiz-adv-x="948" d="M944 1024l-393 -1114q-24 -68 -45 -110.5t-53 -82t-76.5 -57.5t-104.5 -18q-39 0 -114 12l12 149q58 -8 106 -8q55 0 91 92l43 113h-41l-230 1024h185l165 -846l273 846h182zM854 1219h-174l14 163h174zM444 1219h-174l15 163h174z" />
<glyph unicode="&#x100;" horiz-adv-x="1024" d="M888 1571h-523l15 143h522zM709 516l-105 782l-233 -782h338zM952 0h-178l-47 362h-403l-111 -362h-182l467 1434h235z" />
<glyph unicode="&#x101;" horiz-adv-x="1019" d="M914 1161h-522l14 144h522zM152 467q28 302 143.5 436.5t347.5 134.5q53 0 131.5 -14t130.5 -31l-65 -714q0 -1 -1 -10.5t-2 -25.5t-1 -32q0 -78 79 -78l-10 -133h-39q-140 0 -176 127q-95 -141 -282 -141q-138 0 -200.5 91.5t-62.5 270.5q0 47 7 119zM453 133 q99 0 155 64t64 155l47 531q-54 8 -111 8q-284 0 -284 -557q0 -104 30 -152.5t99 -48.5z" />
<glyph unicode="&#x102;" horiz-adv-x="1024" d="M775 1837h166q-11 -44 -20.5 -72t-33.5 -69t-54.5 -65t-83.5 -42t-121 -18q-71 0 -124 25t-82 66.5t-44 84.5t-18 90h168q0 -141 110 -141q64 0 94.5 37.5t42.5 103.5zM709 516l-105 782l-233 -782h338zM952 0h-178l-47 362h-403l-111 -362h-182l467 1434h235z" />
<glyph unicode="&#x103;" horiz-adv-x="1019" d="M802 1427h166q-11 -44 -21 -72.5t-33.5 -69t-54.5 -64.5t-84 -42t-121 -18q-71 0 -124 25t-82 66.5t-44 84.5t-18 90h168q0 -141 111 -141q64 0 94.5 37.5t42.5 103.5zM152 467q28 302 143.5 436.5t347.5 134.5q53 0 131.5 -14t130.5 -31l-65 -714q0 -1 -1 -10.5 t-2 -25.5t-1 -32q0 -78 79 -78l-10 -133h-39q-140 0 -176 127q-95 -141 -282 -141q-138 0 -200.5 91.5t-62.5 270.5q0 47 7 119zM453 133q99 0 155 64t64 155l47 531q-54 8 -111 8q-284 0 -284 -557q0 -104 30 -152.5t99 -48.5z" />
<glyph unicode="&#x104;" horiz-adv-x="1024" d="M946 -322l-8 -133q-82 -20 -154 -20q-118 0 -167.5 39.5t-49.5 138.5q0 85 40 170t98 143h67l-45 346h-403l-111 -362h-182l467 1434h235l219 -1434h-118q-44 -64 -73.5 -142.5t-29.5 -123.5q0 -41 20 -55.5t64 -14.5q45 0 131 14zM709 516l-105 782l-233 -782h338z" />
<glyph unicode="&#x105;" horiz-adv-x="1019" d="M977 -295l-8 -133q-86 -21 -154 -21q-118 0 -167.5 40t-49.5 139q0 85 39.5 170t97.5 143h4q-34 31 -49 84q-95 -141 -282 -141q-138 0 -200.5 91.5t-62.5 270.5q0 47 7 119q29 303 144.5 437t346.5 134q53 0 131.5 -14t130.5 -31l-65 -714q0 -1 -1 -10.5t-2 -25.5 t-1 -32q0 -78 79 -78l-10 -133h-39q-3 0 -9 0.5t-9 0.5q-38 -62 -62 -131t-24 -110t20 -55t64 -14q45 0 131 14zM453 133q99 0 155 64t64 155l47 531q-54 8 -111 8q-284 0 -284 -557q0 -104 30 -152.5t99 -48.5z" />
<glyph unicode="&#x106;" horiz-adv-x="866" d="M775 1571h-176l237 276h223zM768 170l-14 -150q-41 -11 -112.5 -22.5t-117.5 -11.5q-75 0 -130 14t-100 47.5t-72.5 90.5t-42.5 143t-15 204q0 110 12 254q16 182 43 306t64.5 204t96.5 123.5t127 59.5t169 16q38 0 105.5 -12t95.5 -21l-15 -151q-124 30 -235 30 q-60 0 -99 -19.5t-74 -78.5t-58 -173.5t-40 -297.5q-14 -231 -14 -262q0 -82 8.5 -140.5t23 -94t39 -55.5t51 -27t64.5 -7q103 0 240 31z" />
<glyph unicode="&#x107;" horiz-adv-x="827" d="M658 1161h-176l237 277h224zM709 174l-15 -154q-125 -34 -225 -34q-83 0 -137.5 14.5t-98 54.5t-63.5 117t-20 195q0 243 45.5 391.5t134 214t229.5 65.5q91 0 221 -32l-12 -154q-128 33 -236 33q-91 0 -135.5 -85t-64.5 -308q-6 -73 -6 -127q0 -71 9.5 -117t30 -69.5 t44 -31.5t59.5 -8q24 0 49.5 2t43.5 4t42.5 6.5t36.5 7t36.5 8t31.5 7.5z" />
<glyph unicode="&#x108;" horiz-adv-x="866" d="M1007 1571h-198l-107 172l-139 -172h-197l254 276h180zM768 170l-14 -150q-41 -11 -112.5 -22.5t-117.5 -11.5q-75 0 -130 14t-100 47.5t-72.5 90.5t-42.5 143t-15 204q0 110 12 254q16 182 43 306t64.5 204t96.5 123.5t127 59.5t169 16q38 0 105.5 -12t95.5 -21 l-15 -151q-124 30 -235 30q-60 0 -99 -19.5t-74 -78.5t-58 -173.5t-40 -297.5q-14 -231 -14 -262q0 -82 8.5 -140.5t23 -94t39 -55.5t51 -27t64.5 -7q103 0 240 31z" />
<glyph unicode="&#x109;" horiz-adv-x="827" d="M890 1161h-198l-107 172l-139 -172h-197l254 277h181zM709 174l-15 -154q-125 -34 -225 -34q-83 0 -137.5 14.5t-98 54.5t-63.5 117t-20 195q0 243 45.5 391.5t134 214t229.5 65.5q91 0 221 -32l-12 -154q-128 33 -236 33q-91 0 -135.5 -85t-64.5 -308q-6 -73 -6 -127 q0 -71 9.5 -117t30 -69.5t44 -31.5t59.5 -8q24 0 49.5 2t43.5 4t42.5 6.5t36.5 7t36.5 8t31.5 7.5z" />
<glyph unicode="&#x10a;" horiz-adv-x="866" d="M773 1571h-174l16 174h174zM768 170l-14 -150q-41 -11 -112.5 -22.5t-117.5 -11.5q-75 0 -130 14t-100 47.5t-72.5 90.5t-42.5 143t-15 204q0 110 12 254q16 182 43 306t64.5 204t96.5 123.5t127 59.5t169 16q38 0 105.5 -12t95.5 -21l-15 -151q-124 30 -235 30 q-60 0 -99 -19.5t-74 -78.5t-58 -173.5t-40 -297.5q-14 -231 -14 -262q0 -82 8.5 -140.5t23 -94t39 -55.5t51 -27t64.5 -7q103 0 240 31z" />
<glyph unicode="&#x10b;" horiz-adv-x="827" d="M656 1161h-174l17 174h174zM709 174l-15 -154q-125 -34 -225 -34q-83 0 -137.5 14.5t-98 54.5t-63.5 117t-20 195q0 243 45.5 391.5t134 214t229.5 65.5q91 0 221 -32l-12 -154q-128 33 -236 33q-91 0 -135.5 -85t-64.5 -308q-6 -73 -6 -127q0 -71 9.5 -117t30 -69.5 t44 -31.5t59.5 -8q24 0 49.5 2t43.5 4t42.5 6.5t36.5 7t36.5 8t31.5 7.5z" />
<glyph unicode="&#x10c;" horiz-adv-x="866" d="M390 1847h199l108 -172l138 172h196l-250 -276h-180zM768 170l-14 -150q-41 -11 -112.5 -22.5t-117.5 -11.5q-75 0 -130 14t-100 47.5t-72.5 90.5t-42.5 143t-15 204q0 110 12 254q16 182 43 306t64.5 204t96.5 123.5t127 59.5t169 16q38 0 105.5 -12t95.5 -21l-15 -151 q-124 30 -235 30q-60 0 -99 -19.5t-74 -78.5t-58 -173.5t-40 -297.5q-14 -231 -14 -262q0 -82 8.5 -140.5t23 -94t39 -55.5t51 -27t64.5 -7q103 0 240 31z" />
<glyph unicode="&#x10d;" horiz-adv-x="827" d="M273 1438h199l109 -172l137 172h196l-249 -277h-181zM709 174l-15 -154q-125 -34 -225 -34q-83 0 -137.5 14.5t-98 54.5t-63.5 117t-20 195q0 243 45.5 391.5t134 214t229.5 65.5q91 0 221 -32l-12 -154q-128 33 -236 33q-91 0 -135.5 -85t-64.5 -308q-6 -73 -6 -127 q0 -71 9.5 -117t30 -69.5t44 -31.5t59.5 -8q24 0 49.5 2t43.5 4t42.5 6.5t36.5 7t36.5 8t31.5 7.5z" />
<glyph unicode="&#x10e;" horiz-adv-x="1077" d="M378 1847h199l108 -172l137 172h197l-250 -276h-180zM803 725q12 138 12 233q0 83 -8.5 144.5t-23 98.5t-37 59t-47 30t-56.5 8l-199 -8l-100 -1147q109 -8 195 -8q50 0 90 29.5t74.5 96.5t60 183.5t39.5 280.5zM987 739q-16 -183 -43.5 -313t-65.5 -215.5t-94 -135 t-121 -69.5t-155 -20q-71 0 -159.5 3.5t-141.5 6.5l-53 4l125 1434q190 14 331 14q76 0 131.5 -11.5t106 -43.5t82 -87t49.5 -144.5t18 -213.5q0 -79 -10 -209z" />
<glyph unicode="&#x10f;" horiz-adv-x="1032" d="M1428 1229l-174 -287h-139l108 287l17 205h204zM152 467q28 306 140.5 438.5t356.5 132.5q55 0 113 -10l37 406h174l-125 -1434h-143l-11 123q-107 -137 -276 -137q-138 0 -204.5 92t-66.5 278q0 62 5 111zM463 133q56 0 102.5 25.5t75.5 67t45.5 88t20.5 94.5l43 475 q-62 8 -136 8q-72 0 -122.5 -28.5t-82.5 -88t-50 -137.5t-29 -191q-4 -70 -4 -98q0 -109 32.5 -162t104.5 -53z" />
<glyph unicode="&#x110;" horiz-adv-x="1097" d="M1008 739q-16 -183 -43.5 -313t-65.5 -215.5t-94.5 -135t-121.5 -69.5t-155 -20q-71 0 -159.5 3.5t-141.5 6.5l-53 4l57 666h-143l12 153h146l53 615q191 14 332 14q76 0 131.5 -11.5t106 -43.5t82 -87t49.5 -144.5t18 -213.5q0 -79 -10 -209zM823 725q13 149 13 233 q0 83 -8.5 144.5t-23 98.5t-37 59t-47 30t-56.5 8l-199 -8l-41 -471h229l-12 -153h-231l-45 -523q108 -8 194 -8q50 0 90 29.5t74.5 96.5t60 183.5t39.5 280.5z" />
<glyph unicode="&#x111;" horiz-adv-x="1032" d="M152 467q28 306 140.5 438.5t356.5 132.5q55 0 113 -10l12 133h-403l12 154h405l11 119h174l-11 -119h87l-13 -154h-87l-101 -1161h-143l-11 123q-107 -137 -276 -137q-138 0 -204.5 92t-66.5 278q0 62 5 111zM463 133q56 0 102.5 25.5t75 67t45.5 88t21 94.5l43 475 q-62 8 -136 8q-72 0 -122.5 -28.5t-82.5 -88t-50 -137.5t-29 -191q-4 -70 -4 -98q0 -109 32.5 -162t104.5 -53z" />
<glyph unicode="&#x112;" horiz-adv-x="958" d="M887 1571h-523l15 143h522zM825 0h-671l125 1434h671l-14 -150h-494l-41 -469h443l-13 -149h-442l-45 -516h494z" />
<glyph unicode="&#x113;" horiz-adv-x="933" d="M832 1161h-522l14 144h522zM872 758q0 -175 -104.5 -257.5t-294.5 -82.5q-75 0 -151 8v-74q0 -54 8.5 -94.5t22.5 -64t34.5 -37.5t40.5 -18.5t45 -4.5q38 0 72.5 2t67 7t51.5 8t50 10t38 8l-15 -148q-50 -14 -125.5 -24t-130.5 -10q-63 0 -109.5 8.5t-90.5 32.5t-71 65.5 t-43.5 110.5t-16.5 164q0 182 27.5 312.5t81.5 208.5t128.5 114t173.5 36q83 0 145.5 -23.5t97.5 -64t51.5 -88.5t16.5 -104zM559 893q-96 0 -152 -74t-75 -252q61 -6 110 -6q143 0 205 44t62 145q0 67 -32 105t-118 38z" />
<glyph unicode="&#x114;" horiz-adv-x="958" d="M774 1837h166q-11 -44 -20.5 -72t-33.5 -69t-54.5 -65t-83.5 -42t-121 -18q-71 0 -124 25t-82 66.5t-44 84.5t-18 90h168q0 -141 110 -141q64 0 94.5 37.5t42.5 103.5zM825 0h-671l125 1434h671l-14 -150h-494l-41 -469h443l-13 -149h-442l-45 -516h494z" />
<glyph unicode="&#x115;" horiz-adv-x="933" d="M720 1427h166q-11 -44 -20.5 -72t-33.5 -69t-54.5 -65t-83.5 -42t-121 -18q-57 0 -103.5 17t-75.5 44t-49 63t-29 70.5t-12 71.5h168q0 -141 111 -141q64 0 94.5 37.5t42.5 103.5zM872 758q0 -175 -104.5 -257.5t-294.5 -82.5q-75 0 -151 8v-74q0 -54 8.5 -94.5t22.5 -64 t34.5 -37.5t40.5 -18.5t45 -4.5q38 0 72.5 2t67 7t51.5 8t50 10t38 8l-15 -148q-50 -14 -125.5 -24t-130.5 -10q-63 0 -109.5 8.5t-90.5 32.5t-71 65.5t-43.5 110.5t-16.5 164q0 182 27.5 312.5t81.5 208.5t128.5 114t173.5 36q83 0 145.5 -23.5t97.5 -64t51.5 -88.5 t16.5 -104zM559 893q-96 0 -152 -74t-75 -252q61 -6 110 -6q143 0 205 44t62 145q0 67 -32 105t-118 38z" />
<glyph unicode="&#x116;" horiz-adv-x="958" d="M713 1571h-174l16 174h174zM825 0h-671l125 1434h671l-14 -150h-494l-41 -469h443l-13 -149h-442l-45 -516h494z" />
<glyph unicode="&#x117;" horiz-adv-x="933" d="M658 1161h-174l17 174h174zM872 758q0 -175 -104.5 -257.5t-294.5 -82.5q-75 0 -151 8v-74q0 -54 8.5 -94.5t22.5 -64t34.5 -37.5t40.5 -18.5t45 -4.5q38 0 72.5 2t67 7t51.5 8t50 10t38 8l-15 -148q-50 -14 -125.5 -24t-130.5 -10q-63 0 -109.5 8.5t-90.5 32.5t-71 65.5 t-43.5 110.5t-16.5 164q0 182 27.5 312.5t81.5 208.5t128.5 114t173.5 36q83 0 145.5 -23.5t97.5 -64t51.5 -88.5t16.5 -104zM559 893q-96 0 -152 -74t-75 -252q61 -6 110 -6q143 0 205 44t62 145q0 67 -32 105t-118 38z" />
<glyph unicode="&#x118;" horiz-adv-x="958" d="M692 -322l-8 -133q-82 -20 -154 -20q-118 0 -167.5 39.5t-49.5 138.5q0 78 35 158t87 139h-281l125 1434h671l-14 -150h-494l-41 -469h443l-13 -149h-442l-45 -516h494l-13 -150h-245q-44 -64 -73.5 -142.5t-29.5 -123.5q0 -41 20 -55.5t64 -14.5q45 0 131 14z" />
<glyph unicode="&#x119;" horiz-adv-x="933" d="M559 893q-96 0 -152 -74t-75 -252q61 -6 110 -6q143 0 205 44t62 145q0 67 -32 105t-118 38zM613 -336l-8 -133q-82 -20 -154 -20q-118 0 -167.5 39.5t-49.5 138.5q0 82 38 165.5t93 141.5q-106 22 -160.5 106t-54.5 265q0 182 27.5 312.5t81.5 208.5t128.5 114t173.5 36 q83 0 145.5 -23.5t97.5 -64t51.5 -88.5t16.5 -104q0 -175 -104.5 -257.5t-294.5 -82.5q-75 0 -151 8v-74q0 -54 8.5 -94.5t22.5 -64t34.5 -37.5t40.5 -18.5t45 -4.5q38 0 72.5 2t67 7t51.5 8t50 10t38 8l-15 -148q-108 -31 -236 -34q-44 -64 -73.5 -143t-29.5 -124 q0 -41 20 -55t64 -14q45 0 131 14z" />
<glyph unicode="&#x11a;" horiz-adv-x="958" d="M330 1847h199l108 -172l137 172h197l-250 -276h-180zM825 0h-671l125 1434h671l-14 -150h-494l-41 -469h443l-13 -149h-442l-45 -516h494z" />
<glyph unicode="&#x11b;" horiz-adv-x="933" d="M275 1438h199l109 -172l137 172h196l-249 -277h-181zM872 758q0 -175 -104.5 -257.5t-294.5 -82.5q-75 0 -151 8v-74q0 -54 8.5 -94.5t22.5 -64t34.5 -37.5t40.5 -18.5t45 -4.5q38 0 72.5 2t67 7t51.5 8t50 10t38 8l-15 -148q-50 -14 -125.5 -24t-130.5 -10 q-63 0 -109.5 8.5t-90.5 32.5t-71 65.5t-43.5 110.5t-16.5 164q0 182 27.5 312.5t81.5 208.5t128.5 114t173.5 36q83 0 145.5 -23.5t97.5 -64t51.5 -88.5t16.5 -104zM559 893q-96 0 -152 -74t-75 -252q61 -6 110 -6q143 0 205 44t62 145q0 67 -32 105t-118 38z" />
<glyph unicode="&#x11c;" horiz-adv-x="1013" d="M1044 1571h-199l-106 172l-139 -172h-197l254 276h180zM926 754l-66 -734q-185 -34 -323 -34q-99 0 -165.5 22.5t-115 78t-70.5 153t-22 245.5q0 110 12 254q16 181 45 305.5t69.5 204.5t104.5 123.5t137 59.5t181 16q87 0 227 -33l-12 -147q-161 30 -264 30 q-56 0 -95 -12t-75 -47t-60.5 -98.5t-44.5 -165.5t-33 -250q-14 -231 -14 -266q0 -102 12 -167t39 -99t60.5 -46t85.5 -12q62 0 161 15l41 454h-182l14 150h353z" />
<glyph unicode="&#x11d;" horiz-adv-x="1032" d="M981 1161h-199l-107 172l-139 -172h-196l253 277h181zM152 477q28 303 142 432t355 129q125 0 285 -45l-82 -911q-9 -105 -24.5 -179.5t-41 -126.5t-55.5 -83t-77.5 -48t-96.5 -22.5t-123 -5.5q-92 0 -233 29l14 151q147 -30 242 -30q55 0 89 9t63 37.5t44.5 83.5 t22.5 144l6 80q-100 -115 -264 -115q-140 0 -205.5 87.5t-65.5 271.5q0 61 5 112zM463 154q58 0 105 24.5t75.5 64t45 83.5t20.5 90l41 465q-78 10 -136 10q-72 0 -122.5 -27t-82.5 -84.5t-50 -133.5t-29 -189q-4 -70 -4 -97q0 -107 32 -156.5t105 -49.5z" />
<glyph unicode="&#x11e;" horiz-adv-x="1013" d="M872 1837h165q-11 -44 -20.5 -72t-33.5 -69t-54.5 -65t-83.5 -42t-121 -18q-71 0 -124 25t-82 66.5t-44 84.5t-18 90h168q0 -141 110 -141q64 0 95 38t43 103zM926 754l-66 -734q-185 -34 -323 -34q-99 0 -165.5 22.5t-115 78t-70.5 153t-22 245.5q0 110 12 254 q16 181 45 305.5t69.5 204.5t104.5 123.5t137 59.5t181 16q87 0 227 -33l-12 -147q-161 30 -264 30q-56 0 -95 -12t-75 -47t-60.5 -98.5t-44.5 -165.5t-33 -250q-14 -231 -14 -266q0 -102 12 -167t39 -99t60.5 -46t85.5 -12q62 0 161 15l41 454h-182l14 150h353z" />
<glyph unicode="&#x11f;" horiz-adv-x="1032" d="M808 1427h166q-11 -44 -20.5 -72t-33.5 -69t-54.5 -65t-83.5 -42t-121 -18q-57 0 -103.5 17t-75.5 44t-49 63t-29 70.5t-12 71.5h168q0 -141 111 -141q64 0 94.5 37.5t42.5 103.5zM152 477q28 303 142 432t355 129q125 0 285 -45l-82 -911q-9 -105 -24.5 -179.5 t-41 -126.5t-55.5 -83t-77.5 -48t-96.5 -22.5t-123 -5.5q-92 0 -233 29l14 151q147 -30 242 -30q55 0 89 9t63 37.5t44.5 83.5t22.5 144l6 80q-100 -115 -264 -115q-140 0 -205.5 87.5t-65.5 271.5q0 61 5 112zM463 154q58 0 105 24.5t75.5 64t45 83.5t20.5 90l41 465 q-78 10 -136 10q-72 0 -122.5 -27t-82.5 -84.5t-50 -133.5t-29 -189q-4 -70 -4 -97q0 -107 32 -156.5t105 -49.5z" />
<glyph unicode="&#x120;" horiz-adv-x="1013" d="M810 1571h-174l16 174h174zM926 754l-66 -734q-185 -34 -323 -34q-99 0 -165.5 22.5t-115 78t-70.5 153t-22 245.5q0 110 12 254q16 181 45 305.5t69.5 204.5t104.5 123.5t137 59.5t181 16q87 0 227 -33l-12 -147q-161 30 -264 30q-56 0 -95 -12t-75 -47t-60.5 -98.5 t-44.5 -165.5t-33 -250q-14 -231 -14 -266q0 -102 12 -167t39 -99t60.5 -46t85.5 -12q62 0 161 15l41 454h-182l14 150h353z" />
<glyph unicode="&#x121;" horiz-adv-x="1032" d="M746 1161h-174l17 174h174zM152 477q28 303 142 432t355 129q125 0 285 -45l-82 -911q-9 -105 -24.5 -179.5t-41 -126.5t-55.5 -83t-77.5 -48t-96.5 -22.5t-123 -5.5q-92 0 -233 29l14 151q147 -30 242 -30q55 0 89 9t63 37.5t44.5 83.5t22.5 144l6 80 q-100 -115 -264 -115q-140 0 -205.5 87.5t-65.5 271.5q0 61 5 112zM463 154q58 0 105 24.5t75.5 64t45 83.5t20.5 90l41 465q-78 10 -136 10q-72 0 -122.5 -27t-82.5 -84.5t-50 -133.5t-29 -189q-4 -70 -4 -97q0 -107 32 -156.5t105 -49.5z" />
<glyph unicode="&#x122;" horiz-adv-x="1013" d="M659 -205l-174 -287h-139l109 287l15 193q-107 10 -172 57.5t-99.5 154.5t-34.5 285q0 110 12 254q16 181 45 305.5t69.5 204.5t104.5 123.5t137 59.5t181 16q87 0 227 -33l-12 -147q-161 30 -264 30q-56 0 -95 -12t-75 -47t-60.5 -98.5t-44.5 -165.5t-33 -250 q-14 -231 -14 -266q0 -102 12 -167t39 -99t60.5 -46t85.5 -12q62 0 161 15l41 454h-182l14 150h353l-66 -734q-94 -18 -185 -27z" />
<glyph unicode="&#x123;" horiz-adv-x="1032" d="M502 1153l12 127q56 -12 111 -12q46 0 67 14.5t21 54.5q0 29 -34.5 42.5t-125.5 13.5l63 258h134l-37 -158q85 -10 121 -43.5t36 -99.5q0 -106 -64.5 -158.5t-174.5 -52.5q-57 0 -129 14zM152 477q28 303 142 432t355 129q125 0 285 -45l-82 -911q-9 -105 -24.5 -179.5 t-41 -126.5t-55.5 -83t-77.5 -48t-96.5 -22.5t-123 -5.5q-92 0 -233 29l14 151q147 -30 242 -30q55 0 89 9t63 37.5t44.5 83.5t22.5 144l6 80q-100 -115 -264 -115q-140 0 -205.5 87.5t-65.5 271.5q0 61 5 112zM463 154q58 0 105 24.5t75.5 64t45 83.5t20.5 90l41 465 q-78 10 -136 10q-72 0 -122.5 -27t-82.5 -84.5t-50 -133.5t-29 -189q-4 -70 -4 -97q0 -107 32 -156.5t105 -49.5z" />
<glyph unicode="&#x124;" horiz-adv-x="1126" d="M1000 1571h-198l-107 172l-139 -172h-197l254 276h180zM932 0h-178l57 659h-422l-57 -659h-178l125 1434h178l-56 -623h422l56 623h178z" />
<glyph unicode="&#x125;" horiz-adv-x="1036" d="M958 1556h-198l-107 173l-139 -173h-197l254 277h180zM317 0h-174l125 1434h174l-43 -502q92 106 244 106q153 0 216 -74t63 -221q0 -26 -4 -88l-56 -655h-174l55 655q7 70 7 78q0 76 -34 117t-118 41q-55 0 -98.5 -26t-69.5 -69.5t-40.5 -91t-18.5 -98.5z" />
<glyph unicode="&#x126;" horiz-adv-x="1126" d="M932 0h-178l57 659h-422l-57 -659h-178l90 1032h-97l13 154h97l22 248h178l-22 -248h422l22 248h178l-22 -248h91l-12 -154h-92zM843 1032h-422l-20 -221h422z" />
<glyph unicode="&#x127;" horiz-adv-x="1036" d="M317 0h-174l103 1174h-131l12 153h132l9 107h174l-9 -107h360l-13 -153h-360l-21 -242q92 106 244 106q153 0 216 -74t63 -221q0 -26 -4 -88l-56 -655h-174l55 655q7 70 7 78q0 76 -34 117t-118 41q-44 0 -81.5 -17.5t-62 -46t-43 -66.5t-28 -76.5t-12.5 -78.5z" />
<glyph unicode="&#x128;" horiz-adv-x="649" d="M155 1577l14 149q88 68 182 68q50 0 118.5 -40t106.5 -40q50 0 86 17t84 57l-12 -150q-75 -67 -182 -67q-43 0 -81 20t-73 40t-71 20q-83 0 -172 -74zM537 0h-465l12 150h143l99 1134h-144l15 150h465l-15 -150h-143l-98 -1134h143z" />
<glyph unicode="&#x129;" horiz-adv-x="501" d="M44 1167l14 150q87 67 183 67q50 0 118.5 -39.5t106.5 -39.5q50 0 86 17t84 56l-12 -149q-76 -68 -183 -68q-43 0 -81 20t-73 40t-71 20q-83 0 -172 -74zM317 0h-174l88 1024h175z" />
<glyph unicode="&#x12a;" horiz-adv-x="649" d="M701 1571h-522l14 143h523zM537 0h-465l12 150h143l99 1134h-144l15 150h465l-15 -150h-143l-98 -1134h143z" />
<glyph unicode="&#x12b;" horiz-adv-x="501" d="M591 1161h-523l15 144h522zM317 0h-174l88 1024h175z" />
<glyph unicode="&#x12c;" horiz-adv-x="649" d="M589 1837h166q-11 -44 -20.5 -72t-33.5 -69t-54.5 -65t-83.5 -42t-121 -18q-57 0 -103.5 17t-75.5 44t-49 63t-29 70.5t-12 71.5h168q0 -141 111 -141q64 0 94.5 37.5t42.5 103.5zM537 0h-465l12 150h143l99 1134h-144l15 150h465l-15 -150h-143l-98 -1134h143z" />
<glyph unicode="&#x12d;" horiz-adv-x="501" d="M479 1427h165q-11 -44 -20.5 -72t-33.5 -69t-54.5 -65t-83.5 -42t-121 -18q-71 0 -124 25t-82 66.5t-44 84.5t-18 90h168q0 -141 110 -141q64 0 95 38t43 103zM317 0h-174l88 1024h175z" />
<glyph unicode="&#x12e;" horiz-adv-x="649" d="M436 -322l-8 -133q-82 -20 -154 -20q-118 0 -167.5 39.5t-49.5 138.5q0 78 35 158t87 139h-107l12 150h143l99 1134h-144l15 150h465l-15 -150h-143l-98 -1134h143l-12 -150h-213q-44 -64 -73.5 -142.5t-29.5 -123.5q0 -41 20 -55.5t64 -14.5q45 0 131 14z" />
<glyph unicode="&#x12f;" horiz-adv-x="501" d="M436 1249h-194l16 185h195zM362 -322l-8 -133q-82 -20 -154 -20q-118 0 -167.5 39.5t-49.5 138.5q0 85 40 170t98 143h24l86 1008h175l-89 -1024h-67q-44 -64 -73.5 -142.5t-29.5 -123.5q0 -41 20 -55.5t64 -14.5q45 0 131 14z" />
<glyph unicode="&#x130;" horiz-adv-x="649" d="M528 1571h-175l17 174h174zM537 0h-465l12 150h143l99 1134h-144l15 150h465l-15 -150h-143l-98 -1134h143z" />
<glyph unicode="&#x131;" horiz-adv-x="501" d="M317 0h-174l88 1024h175z" />
<glyph unicode="&#x132;" horiz-adv-x="1468" d="M1327 514q-9 -112 -24 -193t-39 -140.5t-54 -96.5t-74.5 -59t-95.5 -30.5t-122 -8.5q-60 0 -218 24l13 150q41 -7 111 -14t96 -7q47 0 77.5 7.5t57.5 29t44 62.5t29.5 104t20.5 158l68 784h-330l14 150h508zM537 0h-465l12 150h143l99 1134h-144l15 150h465l-15 -150 h-143l-98 -1134h143z" />
<glyph unicode="&#x133;" horiz-adv-x="1003" d="M907 1024l-96 -1112q-11 -125 -78 -197.5t-201 -72.5q-86 0 -174 10l13 145q86 -8 147 -8q51 0 82 29.5t35 83.5l98 1122h174zM938 1249h-195l17 185h194zM436 1249h-194l16 185h195zM317 0h-174l88 1024h175z" />
<glyph unicode="&#x134;" horiz-adv-x="819" d="M838 1571h-198l-107 172l-139 -172h-197l254 276h181zM678 514q-11 -134 -31.5 -225t-50.5 -151.5t-78.5 -93t-106 -45.5t-143.5 -13q-59 0 -217 24l12 150q41 -7 111 -14t96 -7q47 0 77.5 7.5t58 29t44.5 62.5t29.5 104.5t20.5 157.5l67 784h-329l14 150h508z" />
<glyph unicode="&#x135;" horiz-adv-x="501" d="M406 1024l-97 -1112q-25 -270 -278 -270q-86 0 -174 10l12 145q86 -8 147 -8q51 0 82 29.5t35 83.5l98 1122h175zM647 1198h-198l-107 172l-139 -172h-197l254 277h180z" />
<glyph unicode="&#x136;" horiz-adv-x="1007" d="M788 -205l-174 -287h-139l109 287l16 205h129l-266 657l-86 -122l-45 -535h-178l125 1434h178l-56 -629l439 629h190l-444 -627l340 -807h-121z" />
<glyph unicode="&#x137;" horiz-adv-x="950" d="M709 -205l-174 -287h-140l109 287l16 205h139l-237 508l-68 -70l-37 -438h-174l125 1434h174l-67 -762l334 352h223l-381 -395l307 -629h-133z" />
<glyph unicode="&#x139;" horiz-adv-x="839" d="M695 1571h-176l237 276h223zM788 0h-634l125 1434h178l-113 -1278h457z" />
<glyph unicode="&#x13a;" horiz-adv-x="552" d="M454 1556h-176l238 277h223zM453 154l-13 -144q-77 -16 -125 -16q-68 0 -111.5 43.5t-43.5 146.5q0 34 4 66l104 1184h174l-100 -1153l-2.5 -27.5t-2.5 -28t-1 -14.5q0 -37 13.5 -52.5t47.5 -15.5q10 0 21.5 2t22 5.5t12.5 3.5z" />
<glyph unicode="&#x13b;" horiz-adv-x="839" d="M598 -205l-174 -287h-139l108 287l17 205h-256l125 1434h178l-113 -1278h457l-13 -156h-174q-16 -91 -16 -178v-27z" />
<glyph unicode="&#x13c;" horiz-adv-x="552" d="M383 -156l-174 -286h-139l108 286l17 205q-35 48 -35 135q0 34 4 66l104 1184h174l-100 -1153l-2.5 -27.5t-2.5 -28t-1 -14.5q0 -37 13.5 -52.5t47.5 -15.5q10 0 21.5 2t22 5.5t12.5 3.5l-13 -144q-17 -4 -44 -9z" />
<glyph unicode="&#x13d;" horiz-adv-x="839" d="M881 1243q-7 -17 -50.5 -89t-83.5 -135l-40 -63h-140l109 287l16 205h205zM788 0h-634l125 1434h178l-113 -1278h457z" />
<glyph unicode="&#x13e;" horiz-adv-x="552" d="M898 1229l-174 -287h-140l109 287l16 205h205zM453 154l-13 -144q-77 -16 -125 -16q-68 0 -111.5 43.5t-43.5 146.5q0 34 4 66l104 1184h174l-100 -1153l-2.5 -27.5t-2.5 -28t-1 -14.5q0 -37 13.5 -52.5t47.5 -15.5q10 0 21.5 2t22 5.5t12.5 3.5z" />
<glyph unicode="&#x13f;" horiz-adv-x="839" d="M788 0h-634l125 1434h178l-113 -1278h457zM731 623h-205l19 204h205z" />
<glyph unicode="&#x140;" horiz-adv-x="839" d="M453 154l-13 -144q-77 -16 -125 -16q-68 0 -111.5 43.5t-43.5 146.5q0 34 4 66l104 1184h174l-100 -1153l-2.5 -27.5t-2.5 -28t-1 -14.5q0 -37 13.5 -52.5t47.5 -15.5q10 0 21.5 2t22 5.5t12.5 3.5zM711 532h-205l18 205h205z" />
<glyph unicode="&#x141;" horiz-adv-x="860" d="M788 0h-634l57 674l-127 -60l14 164l127 60l54 596h178l-45 -510l262 120l-15 -163l-262 -121l-53 -604h457z" />
<glyph unicode="&#x142;" horiz-adv-x="573" d="M473 154l-12 -144q-77 -16 -125 -16q-68 0 -112 43.5t-44 146.5q0 34 4 66l39 436l-119 -72l15 160l119 72l51 588h174l-41 -476l139 86l-14 -163l-139 -84l-46 -516l-2.5 -27.5t-2.5 -28t-1 -14.5q0 -37 14 -52.5t48 -15.5q10 0 21 2t21.5 5.5t12.5 3.5z" />
<glyph unicode="&#x143;" horiz-adv-x="1120" d="M765 1571h-176l237 276h223zM926 0h-293l-203 1282l-111 -1282h-165l125 1434h290l203 -1282l113 1282h166z" />
<glyph unicode="&#x144;" horiz-adv-x="1036" d="M691 1161h-176l238 277h223zM317 0h-174l88 1024h144l2 -119q96 133 266 133q153 0 216 -74t63 -221q0 -26 -4 -88l-56 -655h-174l55 655q7 70 7 78q0 76 -34 117t-118 41q-55 0 -99 -26t-70 -69.5t-41 -91t-19 -98.5z" />
<glyph unicode="&#x145;" horiz-adv-x="1120" d="M715 -205l-174 -287h-140l109 287l16 205h107l-203 1282l-111 -1282h-165l125 1434h290l203 -1282l113 1282h166l-125 -1434h-195z" />
<glyph unicode="&#x146;" horiz-adv-x="1036" d="M733 -205l-174 -287h-139l108 287l17 205h143l55 655q7 70 7 78q0 76 -34 117t-118 41q-55 0 -98.5 -26t-70 -69.5t-41.5 -91t-19 -98.5l-52 -606h-174l88 1024h144l2 -119q96 133 266 133q153 0 216 -74t63 -221q0 -26 -4 -88l-56 -655h-112z" />
<glyph unicode="&#x147;" horiz-adv-x="1120" d="M380 1847h199l108 -172l138 172h196l-250 -276h-180zM926 0h-293l-203 1282l-111 -1282h-165l125 1434h290l203 -1282l113 1282h166z" />
<glyph unicode="&#x148;" horiz-adv-x="1036" d="M307 1438h198l109 -172l137 172h197l-250 -277h-180zM317 0h-174l88 1024h144l2 -119q96 133 266 133q153 0 216 -74t63 -221q0 -26 -4 -88l-56 -655h-174l55 655q7 70 7 78q0 76 -34 117t-118 41q-55 0 -99 -26t-70 -69.5t-41 -91t-19 -98.5z" />
<glyph unicode="&#x149;" horiz-adv-x="1081" d="M317 1249l-151 -321h-133l90 321l16 185h195zM362 0h-174l88 1024h144l2 -119q96 133 266 133q153 0 216 -74t63 -221q0 -26 -4 -88l-56 -655h-174l55 655q7 70 7 78q0 76 -34 117t-118 41q-55 0 -99 -26t-70 -69.5t-41 -91t-19 -98.5z" />
<glyph unicode="&#x14c;" horiz-adv-x="1122" d="M937 1571h-523l15 143h522zM848 723q14 168 14 246q0 184 -48.5 256.5t-160.5 72.5q-94 0 -150 -50t-91 -174t-56 -351q-12 -210 -12 -236q0 -191 48.5 -271.5t158.5 -80.5q94 0 151.5 56t92 182.5t53.5 349.5zM1032 733q-14 -159 -35 -271.5t-57 -207t-89 -151 t-130.5 -87t-181.5 -30.5q-206 0 -289.5 132t-83.5 417q0 53 10 198q13 152 33 260t56 198.5t89 144.5t130.5 83t181.5 29q204 0 290 -121.5t86 -382.5q0 -84 -10 -211z" />
<glyph unicode="&#x14d;" horiz-adv-x="1044" d="M863 1161h-522l14 144h522zM940 647q0 -343 -104.5 -502t-335.5 -159q-85 0 -146.5 19.5t-108.5 66t-70 128.5t-23 201q0 331 104.5 484t335.5 153q348 0 348 -391zM756 502q6 80 6 141q0 138 -41 195t-141 57q-122 0 -174.5 -86t-71.5 -307q-6 -61 -6 -113 q0 -138 43.5 -199t140.5 -61q115 0 171 86t73 287z" />
<glyph unicode="&#x14e;" horiz-adv-x="1122" d="M824 1837h166q-11 -44 -20.5 -72t-33.5 -69t-54.5 -65t-83.5 -42t-121 -18q-71 0 -124 25t-82 66.5t-44 84.5t-18 90h168q0 -141 110 -141q64 0 94.5 37.5t42.5 103.5zM848 723q14 168 14 246q0 184 -48.5 256.5t-160.5 72.5q-94 0 -150 -50t-91 -174t-56 -351 q-12 -210 -12 -236q0 -191 48.5 -271.5t158.5 -80.5q94 0 151.5 56t92 182.5t53.5 349.5zM1032 733q-14 -159 -35 -271.5t-57 -207t-89 -151t-130.5 -87t-181.5 -30.5q-206 0 -289.5 132t-83.5 417q0 53 10 198q13 152 33 260t56 198.5t89 144.5t130.5 83t181.5 29 q204 0 290 -121.5t86 -382.5q0 -84 -10 -211z" />
<glyph unicode="&#x14f;" horiz-adv-x="1044" d="M751 1427h166q-11 -44 -21 -72.5t-33.5 -69t-54.5 -64.5t-84 -42t-121 -18q-71 0 -124 25t-82 66.5t-44 84.5t-18 90h168q0 -141 110 -141q64 0 95 38t43 103zM940 647q0 -343 -104.5 -502t-335.5 -159q-85 0 -146.5 19.5t-108.5 66t-70 128.5t-23 201q0 331 104.5 484 t335.5 153q348 0 348 -391zM756 502q6 80 6 141q0 138 -41 195t-141 57q-122 0 -174.5 -86t-71.5 -307q-6 -61 -6 -113q0 -138 43.5 -199t140.5 -61q115 0 171 86t73 287z" />
<glyph unicode="&#x150;" horiz-adv-x="1122" d="M908 1872l-328 -301h-155l237 301h246zM1256 1872l-328 -301h-155l237 301h246zM848 723q14 168 14 246q0 184 -48.5 256.5t-160.5 72.5q-94 0 -150 -50t-91 -174t-56 -351q-12 -210 -12 -236q0 -191 48.5 -271.5t158.5 -80.5q94 0 151.5 56t92 182.5t53.5 349.5z M1032 733q-14 -159 -35 -271.5t-57 -207t-89 -151t-130.5 -87t-181.5 -30.5q-206 0 -289.5 132t-83.5 417q0 53 10 198q13 152 33 260t56 198.5t89 144.5t130.5 83t181.5 29q204 0 290 -121.5t86 -382.5q0 -84 -10 -211z" />
<glyph unicode="&#x151;" horiz-adv-x="1044" d="M834 1462l-328 -301h-155l237 301h246zM1182 1462l-327 -301h-156l238 301h245zM940 647q0 -343 -104.5 -502t-335.5 -159q-85 0 -146.5 19.5t-108.5 66t-70 128.5t-23 201q0 331 104.5 484t335.5 153q348 0 348 -391zM756 502q6 80 6 141q0 138 -41 195t-141 57 q-122 0 -174.5 -86t-71.5 -307q-6 -61 -6 -113q0 -138 43.5 -199t140.5 -61q115 0 171 86t73 287z" />
<glyph unicode="&#x152;" horiz-adv-x="1558" d="M1425 0h-776q-82 -14 -110 -14q-198 0 -285.5 128.5t-87.5 397.5q0 88 10 221q14 152 34 260t56 198.5t89 144.5t130 83t181 29q31 0 108 -14h776l-14 -150h-567q59 -115 59 -328q0 -68 -6 -141h422l-12 -149h-420q-20 -186 -52 -311.5t-86 -204.5h564zM838 723 q14 146 14 262q0 176 -45.5 244.5t-153.5 68.5q-95 0 -151 -50.5t-90.5 -173.5t-55.5 -351q-12 -135 -12 -236q0 -191 48.5 -271.5t158.5 -80.5q137 0 198 127.5t89 460.5z" />
<glyph unicode="&#x153;" horiz-adv-x="1531" d="M1470 758q0 -175 -104.5 -257.5t-294.5 -82.5q-75 0 -151 8v-74q0 -54 8.5 -94.5t22.5 -64t34.5 -37.5t40.5 -18.5t45 -4.5q38 0 72.5 2t67 7t51.5 8t50 10t38 8l-15 -148q-50 -14 -125.5 -24t-130.5 -10q-102 0 -168.5 25.5t-105.5 94.5q-100 -120 -305 -120 q-85 0 -146 19.5t-108 66t-70.5 129t-23.5 202.5q0 328 107 481.5t333 153.5q196 0 280 -133q96 133 287 133q83 0 145.5 -23.5t97.5 -64t51.5 -88.5t16.5 -104zM756 502q6 80 6 141q0 138 -41 195t-141 57q-122 0 -174.5 -86t-71.5 -307q-6 -61 -6 -113q0 -138 43.5 -199 t140.5 -61q115 0 171 86t73 287zM1157 893q-96 0 -152 -74t-75 -252q62 -6 110 -6q143 0 205 44t62 145q0 67 -32 105t-118 38z" />
<glyph unicode="&#x154;" horiz-adv-x="1064" d="M724 1571h-177l238 276h223zM987 1030q-16 -167 -72 -268t-167 -141l225 -621h-193l-207 594h-190l-51 -594h-178l125 1434q176 14 346 14q193 0 279.5 -91t86.5 -259q0 -22 -4 -68zM803 1016q4 58 4 78q0 109 -39 157.5t-131 48.5q-50 0 -98.5 -3t-71.5 -6l-23 -3 l-49 -545h193q95 0 148 58t67 215z" />
<glyph unicode="&#x155;" horiz-adv-x="692" d="M571 1161h-177l238 277h223zM709 1026l-15 -178q-70 16 -123 16q-49 0 -87.5 -27t-62 -72t-36.5 -95t-18 -105l-50 -565h-174l88 1024h144l4 -127q91 141 223 141q49 0 107 -12z" />
<glyph unicode="&#x156;" horiz-adv-x="1064" d="M844 -205l-174 -287h-140l109 287l16 205h125l-207 594h-190l-51 -594h-178l125 1434q176 14 346 14q193 0 279.5 -91t86.5 -259q0 -22 -4 -68q-16 -167 -72 -268t-167 -141l225 -621h-113q-17 -96 -17 -178q0 -4 0.5 -13t0.5 -14zM803 1016q4 58 4 78q0 109 -39 157.5 t-131 48.5q-50 0 -98.5 -3t-71.5 -6l-23 -3l-49 -545h193q95 0 148 58t67 215z" />
<glyph unicode="&#x157;" horiz-adv-x="692" d="M395 -205l-174 -287h-139l108 287l17 205h-64l88 1024h144l4 -127q91 141 223 141q49 0 107 -12l-15 -178q-70 16 -123 16q-49 0 -87.5 -27t-62 -72t-36.5 -95t-18 -105l-50 -565h95z" />
<glyph unicode="&#x158;" horiz-adv-x="1064" d="M339 1847h199l108 -172l137 172h197l-250 -276h-180zM987 1030q-16 -167 -72 -268t-167 -141l225 -621h-193l-207 594h-190l-51 -594h-178l125 1434q176 14 346 14q193 0 279.5 -91t86.5 -259q0 -22 -4 -68zM803 1016q4 58 4 78q0 109 -39 157.5t-131 48.5 q-50 0 -98.5 -3t-71.5 -6l-23 -3l-49 -545h193q95 0 148 58t67 215z" />
<glyph unicode="&#x159;" horiz-adv-x="692" d="M186 1438h199l108 -172l137 172h197l-250 -277h-180zM709 1026l-15 -178q-70 16 -123 16q-49 0 -87.5 -27t-62 -72t-36.5 -95t-18 -105l-50 -565h-174l88 1024h144l4 -127q91 141 223 141q49 0 107 -12z" />
<glyph unicode="&#x15a;" horiz-adv-x="888" d="M719 1571h-176l238 276h223zM799 485q0 -271 -105.5 -385t-335.5 -114q-117 0 -241 32l14 152q133 -35 254 -35q119 0 174 80t55 246q0 101 -35 145t-110 60q-147 32 -215 106.5t-68 218.5q0 457 435 457q96 0 221 -35l-15 -149q-145 34 -233 34q-100 0 -162.5 -71 t-62.5 -223q0 -81 30 -115.5t111 -52.5q143 -30 216 -108.5t73 -242.5z" />
<glyph unicode="&#x15b;" horiz-adv-x="823" d="M629 1161h-176l238 277h223zM727 338q0 -182 -89.5 -267t-283.5 -85q-131 0 -243 30l14 150q155 -33 256 -33q47 0 81 17.5t51 46.5t24.5 58.5t7.5 61.5q0 56 -25.5 84t-91.5 43q-264 60 -264 258q0 178 93.5 257t272.5 79q105 0 222 -30l-13 -150l-32 8t-34 8l-32.5 6.5 t-39 6t-41.5 3t-52 1.5q-164 0 -164 -166q0 -49 29 -77t92 -40q138 -28 200 -95.5t62 -174.5z" />
<glyph unicode="&#x15c;" horiz-adv-x="888" d="M952 1571h-199l-106 172l-140 -172h-196l254 276h180zM799 485q0 -271 -105.5 -385t-335.5 -114q-117 0 -241 32l14 152q133 -35 254 -35q119 0 174 80t55 246q0 101 -35 145t-110 60q-147 32 -215 106.5t-68 218.5q0 457 435 457q96 0 221 -35l-15 -149q-145 34 -233 34 q-100 0 -162.5 -71t-62.5 -223q0 -81 30 -115.5t111 -52.5q143 -30 216 -108.5t73 -242.5z" />
<glyph unicode="&#x15d;" horiz-adv-x="823" d="M862 1161h-199l-106 172l-140 -172h-196l254 277h180zM727 338q0 -182 -89.5 -267t-283.5 -85q-131 0 -243 30l14 150q155 -33 256 -33q47 0 81 17.5t51 46.5t24.5 58.5t7.5 61.5q0 56 -25.5 84t-91.5 43q-264 60 -264 258q0 178 93.5 257t272.5 79q105 0 222 -30 l-13 -150l-32 8t-34 8l-32.5 6.5t-39 6t-41.5 3t-52 1.5q-164 0 -164 -166q0 -49 29 -77t92 -40q138 -28 200 -95.5t62 -174.5z" />
<glyph unicode="&#x15e;" horiz-adv-x="888" d="M136 -495l13 127q55 -12 110 -12q46 0 67 14.5t21 54.5q0 29 -34 42.5t-125 13.5l61 248q-69 9 -132 25l14 152q133 -35 254 -35q119 0 174 80t55 246q0 101 -35 145t-110 60q-147 32 -215 106.5t-68 218.5q0 457 435 457q96 0 221 -35l-15 -149q-145 34 -233 34 q-100 0 -162.5 -71t-62.5 -223q0 -81 30 -115.5t111 -52.5q143 -30 216 -108.5t73 -242.5q0 -265 -100.5 -379.5t-318.5 -119.5l-33 -141q85 -10 121.5 -43.5t36.5 -99.5q0 -106 -65 -158.5t-175 -52.5q-57 0 -129 14z" />
<glyph unicode="&#x15f;" horiz-adv-x="823" d="M132 -495l13 127q55 -12 110 -12q46 0 67 14.5t21 54.5q0 29 -34 42.5t-125 13.5l60 246q-66 7 -133 25l14 150q155 -33 256 -33q47 0 81 17.5t51 46.5t24.5 58.5t7.5 61.5q0 56 -25.5 84t-91.5 43q-264 62 -264 258q0 178 93.5 257t272.5 79q105 0 222 -30l-13 -150 l-32 8t-34 8l-32.5 6.5t-39 6t-41.5 3t-52 1.5q-164 0 -164 -166q0 -49 29 -76.5t92 -40.5q138 -28 200 -95.5t62 -174.5q0 -177 -84 -262.5t-267 -89.5l-33 -141q85 -10 121.5 -43.5t36.5 -99.5q0 -106 -65 -158.5t-175 -52.5q-57 0 -129 14z" />
<glyph unicode="&#x160;" horiz-adv-x="888" d="M291 1729h198l111 -138l135 138h197l-250 -236h-180zM799 485q0 -271 -105.5 -385t-335.5 -114q-117 0 -241 32l14 152q133 -35 254 -35q119 0 174 80t55 246q0 101 -35 145t-110 60q-147 32 -215 106.5t-68 218.5q0 457 435 457q96 0 221 -35l-15 -149q-145 34 -233 34 q-100 0 -162.5 -71t-62.5 -223q0 -81 30 -115.5t111 -52.5q143 -30 216 -108.5t73 -242.5z" />
<glyph unicode="&#x161;" horiz-adv-x="823" d="M727 338q0 -182 -89.5 -267t-283.5 -85q-131 0 -243 30l14 150q155 -33 256 -33q47 0 81 17.5t51 46.5t24.5 58.5t7.5 61.5q0 56 -25.5 84t-91.5 43q-264 60 -264 258q0 178 93.5 257t272.5 79q105 0 222 -30l-13 -150l-32 8t-34 8l-32.5 6.5t-39 6t-41.5 3t-52 1.5 q-164 0 -164 -166q0 -49 29 -77t92 -40q138 -28 200 -95.5t62 -174.5zM219 1462h199l108 -172l138 172h196l-250 -276h-180z" />
<glyph unicode="&#x162;" horiz-adv-x="870" d="M193 -481l12 127q55 -12 111 -12q46 0 67 14.5t21 55.5q0 29 -34 42t-126 13l63 258h20l109 1261h-315l14 156h809l-14 -156h-316l-110 -1278h-67l-33 -141q85 -10 121 -43.5t36 -99.5q0 -106 -64.5 -158.5t-174.5 -52.5q-57 0 -129 14z" />
<glyph unicode="&#x163;" horiz-adv-x="657" d="M175 -493l13 127q55 -12 110 -12q46 0 67 14.5t21 54.5q0 29 -34 42.5t-125 13.5l63 258h8q-116 47 -116 212q0 5 6 80l52 573h-134l13 154h133l22 246h175l-23 -246h238l-13 -154h-237l-52 -579q-4 -40 -4 -60q0 -38 21 -67t72 -29q63 0 137 19l-13 -144 q-66 -19 -156 -22l-33 -141q85 -10 121.5 -43.5t36.5 -99.5q0 -106 -65 -158.5t-175 -52.5q-57 0 -129 14z" />
<glyph unicode="&#x164;" horiz-adv-x="870" d="M255 1847h199l108 -172l138 172h196l-250 -276h-180zM930 1278h-316l-110 -1278h-178l110 1278h-315l14 156h809z" />
<glyph unicode="&#x165;" horiz-adv-x="903" d="M651 870h-237l-52 -579q-4 -40 -4 -60q0 -38 21 -67t72 -29q63 0 137 19l-13 -144q-74 -22 -178 -22q-112 0 -163.5 61.5t-51.5 167.5q0 5 6 80l52 573h-134l13 154h133l22 246h175l-23 -246h238zM999 1065l-174 -287h-139l109 287l16 205h205z" />
<glyph unicode="&#x166;" horiz-adv-x="870" d="M930 1278h-316l-36 -416h239l-12 -153h-240l-61 -709h-178l61 709h-248l13 153h248l36 416h-315l14 156h809z" />
<glyph unicode="&#x167;" horiz-adv-x="657" d="M651 870h-237l-12 -133h206l-12 -153h-208l-26 -293q-4 -40 -4 -60q0 -38 21 -67t72 -29q63 0 137 19l-13 -144q-74 -22 -178 -22q-112 0 -163.5 61.5t-51.5 167.5q0 5 6 80l26 287h-155l13 153h156l12 133h-134l13 154h133l22 246h175l-23 -246h238z" />
<glyph unicode="&#x168;" horiz-adv-x="1095" d="M378 1577l14 149q88 68 182 68q50 0 119 -40t107 -40q50 0 86 17t84 57l-13 -150q-75 -67 -182 -67q-43 0 -81 20t-73 40t-71 20q-83 0 -172 -74zM1036 1434l-92 -1055q-18 -203 -123.5 -298t-294.5 -95q-160 0 -256 84t-96 254q0 39 4 75l90 1035h178l-92 -1051 q-4 -66 -4 -72q0 -89 49.5 -132.5t139.5 -43.5q96 0 155 50.5t68 154.5l96 1094h178z" />
<glyph unicode="&#x169;" d="M291 1167l14 150q87 67 182 67q50 0 119 -39.5t107 -39.5q50 0 86 17t84 56l-13 -149q-76 -68 -182 -68q-43 0 -81 20t-73 40t-71 20q-83 0 -172 -74zM221 1024h174l-57 -676q-4 -58 -4 -80q0 -67 27.5 -101t103.5 -34q57 0 100 28t67 75.5t37 95.5t17 100l49 592h174 l-88 -1024h-143l-4 109q-89 -123 -250 -123q-148 0 -205 69.5t-57 210.5q0 29 4 103z" />
<glyph unicode="&#x16a;" horiz-adv-x="1095" d="M925 1571h-523l15 143h522zM1036 1434l-92 -1055q-18 -203 -123.5 -298t-294.5 -95q-160 0 -256 84t-96 254q0 39 4 75l90 1035h178l-92 -1051q-4 -66 -4 -72q0 -89 49.5 -132.5t139.5 -43.5q96 0 155 50.5t68 154.5l96 1094h178z" />
<glyph unicode="&#x16b;" d="M837 1161h-522l15 144h522zM221 1024h174l-57 -676q-4 -58 -4 -80q0 -67 27.5 -101t103.5 -34q57 0 100 28t67 75.5t37 95.5t17 100l49 592h174l-88 -1024h-143l-4 109q-89 -123 -250 -123q-148 0 -205 69.5t-57 210.5q0 29 4 103z" />
<glyph unicode="&#x16c;" horiz-adv-x="1095" d="M812 1837h166q-11 -44 -20.5 -72t-33.5 -69t-54.5 -65t-83.5 -42t-121 -18q-71 0 -124 25t-82 66.5t-44 84.5t-18 90h168q0 -141 110 -141q64 0 94.5 37.5t42.5 103.5zM1036 1434l-92 -1055q-18 -203 -123.5 -298t-294.5 -95q-160 0 -256 84t-96 254q0 39 4 75l90 1035 h178l-92 -1051q-4 -66 -4 -72q0 -89 49.5 -132.5t139.5 -43.5q96 0 155 50.5t68 154.5l96 1094h178z" />
<glyph unicode="&#x16d;" d="M725 1427h166q-11 -44 -20.5 -72t-33.5 -69t-54.5 -65t-83.5 -42t-121 -18q-71 0 -124 25t-82 66.5t-44 84.5t-18 90h168q0 -141 110 -141q64 0 94.5 37.5t42.5 103.5zM221 1024h174l-57 -676q-4 -58 -4 -80q0 -67 27.5 -101t103.5 -34q57 0 100 28t67 75.5t37 95.5 t17 100l49 592h174l-88 -1024h-143l-4 109q-89 -123 -250 -123q-148 0 -205 69.5t-57 210.5q0 29 4 103z" />
<glyph unicode="&#x16e;" horiz-adv-x="1095" d="M876 1780q-8 -93 -64.5 -151t-150.5 -58q-77 0 -125.5 53.5t-48.5 132.5q0 101 57 166.5t154 65.5q82 0 131 -51t49 -134q0 -4 -1 -12t-1 -12zM757 1782v18q0 82 -69 82q-45 0 -64.5 -34t-19.5 -81q0 -86 67 -86q46 0 64 27.5t22 73.5zM1036 1434l-92 -1055 q-18 -203 -123.5 -298t-294.5 -95q-160 0 -256 84t-96 254q0 39 4 75l90 1035h178l-92 -1051q-4 -66 -4 -72q0 -89 49.5 -132.5t139.5 -43.5q96 0 155 50.5t68 154.5l96 1094h178z" />
<glyph unicode="&#x16f;" d="M789 1370q-8 -93 -64.5 -151t-150.5 -58q-77 0 -125.5 54t-48.5 133q0 101 57 166t154 65q82 0 131 -50.5t49 -133.5q0 -4 -1 -12.5t-1 -12.5zM670 1372v19q0 82 -69 82q-45 0 -64.5 -34t-19.5 -81q0 -86 67 -86q46 0 64 27t22 73zM221 1024h174l-57 -676q-4 -58 -4 -80 q0 -67 27.5 -101t103.5 -34q57 0 100 28t67 75.5t37 95.5t17 100l49 592h174l-88 -1024h-143l-4 109q-89 -123 -250 -123q-148 0 -205 69.5t-57 210.5q0 29 4 103z" />
<glyph unicode="&#x170;" horiz-adv-x="1095" d="M896 1872l-328 -301h-156l238 301h246zM1244 1872l-328 -301h-155l237 301h246zM1036 1434l-92 -1055q-18 -203 -123.5 -298t-294.5 -95q-160 0 -256 84t-96 254q0 39 4 75l90 1035h178l-92 -1051q-4 -66 -4 -72q0 -89 49.5 -132.5t139.5 -43.5q96 0 155 50.5t68 154.5 l96 1094h178z" />
<glyph unicode="&#x171;" d="M809 1462l-328 -301h-156l238 301h246zM1157 1462l-328 -301h-155l237 301h246zM221 1024h174l-57 -676q-4 -58 -4 -80q0 -67 27.5 -101t103.5 -34q57 0 100 28t67 75.5t37 95.5t17 100l49 592h174l-88 -1024h-143l-4 109q-89 -123 -250 -123q-148 0 -205 69.5t-57 210.5 q0 29 4 103z" />
<glyph unicode="&#x172;" horiz-adv-x="1095" d="M658 -336l-8 -133q-82 -20 -154 -20q-118 0 -167.5 39.5t-49.5 138.5q0 83 38.5 167t95.5 142q-112 27 -175.5 108t-63.5 218q0 39 4 75l90 1035h178l-92 -1051q-4 -66 -4 -72q0 -89 49.5 -132.5t139.5 -43.5q96 0 155 50.5t68 154.5l96 1094h178l-92 -1055 q-34 -384 -398 -393q-44 -64 -73.5 -143t-29.5 -124q0 -41 20 -55t64 -14q45 0 131 14z" />
<glyph unicode="&#x173;" d="M626 -336l-8 -133q-82 -20 -153 -20q-118 0 -167.5 39.5t-49.5 138.5q0 79 35.5 159.5t88.5 139.5q-117 12 -163.5 81t-46.5 197q0 29 4 103l55 655h174l-57 -676q-4 -58 -4 -80q0 -67 27.5 -101t103.5 -34q57 0 100 28t67 75.5t37 95.5t17 100l49 592h174l-88 -1024 h-143l-4 109q-61 -84 -150 -110q-48 -65 -80.5 -148.5t-32.5 -131.5q0 -41 20 -55t64 -14q45 0 131 14z" />
<glyph unicode="&#x174;" horiz-adv-x="1236" d="M1056 1571h-199l-107 172l-139 -172h-197l254 276h181zM1208 1434l-194 -1434h-279l-84 623l-202 -623h-267l56 1434h157l-55 -1321l244 716h168l127 -716l180 1321h149z" />
<glyph unicode="&#x175;" horiz-adv-x="1372" d="M1086 1161h-198l-107 172l-139 -172h-197l254 277h180zM1358 1024l-291 -1024h-268l-82 555l-189 -555h-262l-116 1024h178l86 -893l245 709h175l108 -709l244 893h172z" />
<glyph unicode="&#x176;" d="M940 1571h-199l-106 172l-140 -172h-196l254 276h180zM1069 1434l-440 -768l-58 -666h-184l57 666l-299 768h193l217 -596l324 596h190z" />
<glyph unicode="&#x177;" horiz-adv-x="948" d="M874 1161h-198l-107 172l-139 -172h-197l254 277h180zM944 1024l-393 -1114q-24 -68 -45 -110.5t-53 -82t-76.5 -57.5t-104.5 -18q-39 0 -114 12l12 149q58 -8 106 -8q55 0 91 92l43 113h-41l-230 1024h185l165 -846l273 846h182z" />
<glyph unicode="&#x178;" d="M1069 1434l-440 -768l-58 -666h-184l57 666l-299 768h193l217 -596l324 596h190zM913 1505h-174l15 164h174zM504 1505h-174l14 164h174z" />
<glyph unicode="&#x179;" horiz-adv-x="892" d="M675 1571h-177l238 276h223zM889 1253l-621 -1101h504l-12 -152h-688l14 180l623 1102h-480l15 152h661z" />
<glyph unicode="&#x17a;" horiz-adv-x="825" d="M596 1161h-176l237 277h223zM774 842l-498 -690h418l-12 -152h-610l12 164l504 708h-400l13 152h590z" />
<glyph unicode="&#x17b;" horiz-adv-x="892" d="M673 1571h-174l16 174h174zM889 1253l-621 -1101h504l-12 -152h-688l14 180l623 1102h-480l15 152h661z" />
<glyph unicode="&#x17c;" horiz-adv-x="825" d="M594 1161h-174l16 174h174zM774 842l-498 -690h418l-12 -152h-610l12 164l504 708h-400l13 152h590z" />
<glyph unicode="&#x17d;" horiz-adv-x="892" d="M276 1729h199l111 -138l135 138h197l-250 -236h-181zM889 1253l-621 -1101h504l-12 -152h-688l14 180l623 1102h-480l15 152h661z" />
<glyph unicode="&#x17e;" horiz-adv-x="825" d="M774 842l-498 -690h418l-12 -152h-610l12 164l504 708h-400l13 152h590zM229 1462h199l109 -172l137 172h196l-249 -276h-181z" />
<glyph unicode="&#x192;" horiz-adv-x="626" d="M662 874h-248l-84 -962q-21 -270 -279 -270q-86 0 -174 10l12 145q86 -8 148 -8q51 0 82 29.5t35 83.5l86 972h-134l13 150h133l14 160q24 264 283 264q78 0 190 -23l-12 -147q-90 22 -164 22q-54 0 -85 -28t-36 -74l-16 -174h248z" />
<glyph unicode="&#x1a0;" horiz-adv-x="1355" d="M848 723q14 168 14 246q0 184 -48.5 256.5t-160.5 72.5q-94 0 -150 -50t-91 -174t-56 -351q-12 -210 -12 -236q0 -191 48.5 -271.5t158.5 -80.5q94 0 151.5 56t92 182.5t53.5 349.5zM1032 733q-14 -159 -35 -271.5t-57 -207t-89 -151t-130.5 -87t-181.5 -30.5 q-206 0 -289.5 132t-83.5 417q0 53 10 198q13 152 33 260t56 198.5t89 144.5t130.5 83t181.5 29q204 0 290 -121.5t86 -382.5q0 -84 -10 -211zM1405 1243l-174 -287h-139l108 287l17 205h204z" />
<glyph unicode="&#x1a1;" horiz-adv-x="1249" d="M940 647q0 -343 -104.5 -502t-335.5 -159q-85 0 -146.5 19.5t-108.5 66t-70 128.5t-23 201q0 331 104.5 484t335.5 153q348 0 348 -391zM756 502q6 80 6 141q0 138 -41 195t-141 57q-122 0 -174.5 -86t-71.5 -307q-6 -61 -6 -113q0 -138 43.5 -199t140.5 -61 q115 0 171 86t73 287zM1294 834l-174 -287h-139l109 287l16 204h205z" />
<glyph unicode="&#x1af;" horiz-adv-x="1095" d="M1370 1243l-174 -287h-139l108 287l16 205h205zM1036 1434l-92 -1055q-18 -203 -123.5 -298t-294.5 -95q-160 0 -256 84t-96 254q0 39 4 75l90 1035h178l-92 -1051q-4 -66 -4 -72q0 -89 49.5 -132.5t139.5 -43.5q96 0 155 50.5t68 154.5l96 1094h178z" />
<glyph unicode="&#x1b0;" d="M1243 834l-174 -287h-139l108 287l17 204h204zM221 1024h174l-57 -676q-4 -58 -4 -80q0 -67 27.5 -101t103.5 -34q57 0 100 28t67 75.5t37 95.5t17 100l49 592h174l-88 -1024h-143l-4 109q-89 -123 -250 -123q-148 0 -205 69.5t-57 210.5q0 29 4 103z" />
<glyph unicode="&#x1cd;" horiz-adv-x="1024" d="M331 1847h199l108 -172l137 172h197l-250 -276h-180zM709 516l-105 782l-233 -782h338zM952 0h-178l-47 362h-403l-111 -362h-182l467 1434h235z" />
<glyph unicode="&#x1ce;" horiz-adv-x="1019" d="M357 1438h199l109 -172l137 172h196l-249 -277h-181zM152 467q28 302 143.5 436.5t347.5 134.5q53 0 131.5 -14t130.5 -31l-65 -714q0 -1 -1 -10.5t-2 -25.5t-1 -32q0 -78 79 -78l-10 -133h-39q-140 0 -176 127q-95 -141 -282 -141q-138 0 -200.5 91.5t-62.5 270.5 q0 47 7 119zM453 133q99 0 155 64t64 155l47 531q-54 8 -111 8q-284 0 -284 -557q0 -104 30 -152.5t99 -48.5z" />
<glyph unicode="&#x1cf;" horiz-adv-x="649" d="M145 1847h198l109 -172l137 172h197l-250 -276h-180zM537 0h-465l12 150h143l99 1134h-144l15 150h465l-15 -150h-143l-98 -1134h143z" />
<glyph unicode="&#x1d0;" horiz-adv-x="501" d="M34 1438h199l108 -172l137 172h197l-250 -277h-180zM317 0h-174l88 1024h175z" />
<glyph unicode="&#x1d1;" horiz-adv-x="1122" d="M380 1847h199l108 -172l137 172h197l-250 -276h-180zM848 723q14 168 14 246q0 184 -48.5 256.5t-160.5 72.5q-94 0 -150 -50t-91 -174t-56 -351q-12 -210 -12 -236q0 -191 48.5 -271.5t158.5 -80.5q94 0 151.5 56t92 182.5t53.5 349.5zM1032 733q-14 -159 -35 -271.5 t-57 -207t-89 -151t-130.5 -87t-181.5 -30.5q-206 0 -289.5 132t-83.5 417q0 53 10 198q13 152 33 260t56 198.5t89 144.5t130.5 83t181.5 29q204 0 290 -121.5t86 -382.5q0 -84 -10 -211z" />
<glyph unicode="&#x1d2;" horiz-adv-x="1044" d="M306 1438h199l108 -172l138 172h196l-250 -277h-180zM940 647q0 -343 -104.5 -502t-335.5 -159q-85 0 -146.5 19.5t-108.5 66t-70 128.5t-23 201q0 331 104.5 484t335.5 153q348 0 348 -391zM756 502q6 80 6 141q0 138 -41 195t-141 57q-122 0 -174.5 -86t-71.5 -307 q-6 -61 -6 -113q0 -138 43.5 -199t140.5 -61q115 0 171 86t73 287z" />
<glyph unicode="&#x1d3;" horiz-adv-x="1095" d="M368 1847h198l109 -172l137 172h197l-250 -276h-180zM1036 1434l-92 -1055q-18 -203 -123.5 -298t-294.5 -95q-160 0 -256 84t-96 254q0 39 4 75l90 1035h178l-92 -1051q-4 -66 -4 -72q0 -89 49.5 -132.5t139.5 -43.5q96 0 155 50.5t68 154.5l96 1094h178z" />
<glyph unicode="&#x1d4;" d="M281 1438h198l109 -172l137 172h197l-250 -277h-180zM221 1024h174l-57 -676q-4 -58 -4 -80q0 -67 27.5 -101t103.5 -34q57 0 100 28t67 75.5t37 95.5t17 100l49 592h174l-88 -1024h-143l-4 109q-89 -123 -250 -123q-148 0 -205 69.5t-57 210.5q0 29 4 103z" />
<glyph unicode="&#x1d5;" horiz-adv-x="1095" d="M948 1792h-522l14 143h522zM954 1505h-174l15 164h174zM545 1505h-174l14 164h174zM1036 1434l-92 -1055q-18 -203 -123.5 -298t-294.5 -95q-160 0 -256 84t-96 254q0 39 4 75l90 1035h178l-92 -1051q-4 -66 -4 -72q0 -89 49.5 -132.5t139.5 -43.5q96 0 155 50.5 t68 154.5l96 1094h178z" />
<glyph unicode="&#x1d6;" d="M872 1505h-522l14 144h522zM221 1024h174l-57 -676q-4 -58 -4 -80q0 -67 27.5 -101t103.5 -34q57 0 100 28t67 75.5t37 95.5t17 100l49 592h174l-88 -1024h-143l-4 109q-89 -123 -250 -123q-148 0 -205 69.5t-57 210.5q0 29 4 103zM879 1219h-174l14 163h174zM469 1219 h-174l14 163h174z" />
<glyph unicode="&#x1d7;" horiz-adv-x="1095" d="M776 1792h-176l237 276h223zM954 1505h-174l15 164h174zM545 1505h-174l14 164h174zM1036 1434l-92 -1055q-18 -203 -123.5 -298t-294.5 -95q-160 0 -256 84t-96 254q0 39 4 75l90 1035h178l-92 -1051q-4 -66 -4 -72q0 -89 49.5 -132.5t139.5 -43.5q96 0 155 50.5 t68 154.5l96 1094h178z" />
<glyph unicode="&#x1d8;" d="M700 1505h-176l237 277h224zM221 1024h174l-57 -676q-4 -58 -4 -80q0 -67 27.5 -101t103.5 -34q57 0 100 28t67 75.5t37 95.5t17 100l49 592h174l-88 -1024h-143l-4 109q-89 -123 -250 -123q-148 0 -205 69.5t-57 210.5q0 29 4 103zM879 1219h-174l14 163h174zM469 1219 h-174l14 163h174z" />
<glyph unicode="&#x1d9;" horiz-adv-x="1095" d="M391 2068h199l108 -172l138 172h196l-250 -276h-180zM954 1505h-174l15 164h174zM545 1505h-174l14 164h174zM1036 1434l-92 -1055q-18 -203 -123.5 -298t-294.5 -95q-160 0 -256 84t-96 254q0 39 4 75l90 1035h178l-92 -1051q-4 -66 -4 -72q0 -89 49.5 -132.5 t139.5 -43.5q96 0 155 50.5t68 154.5l96 1094h178z" />
<glyph unicode="&#x1da;" d="M315 1782h199l109 -172l137 172h196l-249 -277h-181zM221 1024h174l-57 -676q-4 -58 -4 -80q0 -67 27.5 -101t103.5 -34q57 0 100 28t67 75.5t37 95.5t17 100l49 592h174l-88 -1024h-143l-4 109q-89 -123 -250 -123q-148 0 -205 69.5t-57 210.5q0 29 4 103zM879 1219 h-174l14 163h174zM469 1219h-174l14 163h174z" />
<glyph unicode="&#x1db;" horiz-adv-x="1095" d="M766 1792h-156l-256 276h223zM954 1505h-174l15 164h174zM545 1505h-174l14 164h174zM1036 1434l-92 -1055q-18 -203 -123.5 -298t-294.5 -95q-160 0 -256 84t-96 254q0 39 4 75l90 1035h178l-92 -1051q-4 -66 -4 -72q0 -89 49.5 -132.5t139.5 -43.5q96 0 155 50.5 t68 154.5l96 1094h178z" />
<glyph unicode="&#x1dc;" d="M690 1505h-156l-256 277h223zM221 1024h174l-57 -676q-4 -58 -4 -80q0 -67 27.5 -101t103.5 -34q57 0 100 28t67 75.5t37 95.5t17 100l49 592h174l-88 -1024h-143l-4 109q-89 -123 -250 -123q-148 0 -205 69.5t-57 210.5q0 29 4 103zM879 1219h-174l14 163h174zM469 1219 h-174l14 163h174z" />
<glyph unicode="&#x1de;" horiz-adv-x="1024" d="M907 1792h-522l14 143h522zM709 516l-105 782l-233 -782h338zM952 0h-178l-47 362h-403l-111 -362h-182l467 1434h235zM913 1505h-174l15 164h174zM504 1505h-174l14 164h174z" />
<glyph unicode="&#x1df;" horiz-adv-x="1019" d="M931 1505h-522l15 144h522zM152 467q28 302 143.5 436.5t347.5 134.5q53 0 131.5 -14t130.5 -31l-65 -714q0 -1 -1 -10.5t-2 -25.5t-1 -32q0 -78 79 -78l-10 -133h-39q-140 0 -176 127q-95 -141 -282 -141q-138 0 -200.5 91.5t-62.5 270.5q0 47 7 119zM453 133 q99 0 155 64t64 155l47 531q-54 8 -111 8q-284 0 -284 -557q0 -104 30 -152.5t99 -48.5zM938 1219h-174l14 163h174zM528 1219h-174l15 163h174z" />
<glyph unicode="&#x1e2;" horiz-adv-x="1521" d="M1329 1571h-522l14 143h522zM1389 0h-611l-10 362h-406l-147 -362h-184l610 1434h832l-15 -150h-551l15 -469h485l-12 -149h-467l16 -516h457zM745 1284l-319 -764h338z" />
<glyph unicode="&#x1e3;" horiz-adv-x="1464" d="M1062 1161h-523l15 144h522zM1368 758q0 -330 -399 -330q-77 0 -156 8v-74q0 -229 156 -229q38 0 72.5 2t67 7t51 8.5t49.5 10t38 7.5l-14 -148q-50 -14 -125.5 -24t-130.5 -10q-110 0 -179.5 29.5t-105.5 111.5q-93 -141 -307 -141q-39 0 -76 7t-75 26t-66 47.5t-46 76 t-18 107.5q0 360 396 360q74 0 162 -10q12 137 12 160q0 58 -38 94.5t-106 36.5q-138 0 -299 -45l13 151q139 41 280 41q194 0 264 -108q97 108 269 108q67 0 120.5 -15.5t89 -41.5t58.5 -62.5t33 -76t10 -84.5zM438 133q47 0 85 15t60 37t34 44t14 41l18 191 q-92 10 -172 10q-81 0 -136.5 -47t-55.5 -152q0 -76 37.5 -107.5t115.5 -31.5zM1055 893q-97 0 -154 -70.5t-78 -244.5q75 -7 115 -7q146 0 206 39.5t60 139.5q0 68 -31.5 105.5t-117.5 37.5z" />
<glyph unicode="&#x1e6;" horiz-adv-x="1013" d="M427 1847h199l108 -172l137 172h197l-250 -276h-180zM926 754l-66 -734q-185 -34 -323 -34q-99 0 -165.5 22.5t-115 78t-70.5 153t-22 245.5q0 110 12 254q16 181 45 305.5t69.5 204.5t104.5 123.5t137 59.5t181 16q87 0 227 -33l-12 -147q-161 30 -264 30q-56 0 -95 -12 t-75 -47t-60.5 -98.5t-44.5 -165.5t-33 -250q-14 -231 -14 -266q0 -102 12 -167t39 -99t60.5 -46t85.5 -12q62 0 161 15l41 454h-182l14 150h353z" />
<glyph unicode="&#x1e7;" horiz-adv-x="1032" d="M363 1438h199l109 -172l137 172h197l-250 -277h-181zM152 477q28 303 142 432t355 129q125 0 285 -45l-82 -911q-9 -105 -24.5 -179.5t-41 -126.5t-55.5 -83t-77.5 -48t-96.5 -22.5t-123 -5.5q-92 0 -233 29l14 151q147 -30 242 -30q55 0 89 9t63 37.5t44.5 83.5 t22.5 144l6 80q-100 -115 -264 -115q-140 0 -205.5 87.5t-65.5 271.5q0 61 5 112zM463 154q58 0 105 24.5t75.5 64t45 83.5t20.5 90l41 465q-78 10 -136 10q-72 0 -122.5 -27t-82.5 -84.5t-50 -133.5t-29 -189q-4 -70 -4 -97q0 -107 32 -156.5t105 -49.5z" />
<glyph unicode="&#x1e8;" horiz-adv-x="1007" d="M370 1847h199l108 -172l137 172h197l-250 -276h-180zM926 0h-197l-266 657l-86 -122l-45 -535h-178l125 1434h178l-56 -629l439 629h190l-444 -627z" />
<glyph unicode="&#x1e9;" horiz-adv-x="950" d="M70 1833h198l109 -172l137 172h197l-250 -277h-180zM858 0h-199l-237 508l-68 -70l-37 -438h-174l125 1434h174l-67 -762l334 352h223l-381 -395z" />
<glyph unicode="&#x1ea;" horiz-adv-x="1122" d="M670 -336l-8 -133q-82 -20 -153 -20q-118 0 -167.5 39.5t-49.5 138.5q0 83 38.5 167t94.5 142q-141 33 -200 163.5t-59 373.5q0 53 10 198q13 152 33 260t56 198.5t89 144.5t130.5 83t181.5 29q204 0 290 -121.5t86 -382.5q0 -84 -10 -211q-14 -155 -34.5 -266.5 t-55.5 -205.5t-86 -151t-125 -89t-173 -35q-44 -64 -73.5 -143t-29.5 -124q0 -41 20 -55t64 -14q45 0 131 14zM848 723q14 168 14 246q0 184 -48.5 256.5t-160.5 72.5q-94 0 -150 -50t-91 -174t-56 -351q-12 -210 -12 -236q0 -191 48.5 -271.5t158.5 -80.5q94 0 151.5 56 t92 182.5t53.5 349.5z" />
<glyph unicode="&#x1eb;" horiz-adv-x="1044" d="M632 -336l-9 -133q-82 -20 -153 -20q-118 0 -167.5 39.5t-49.5 138.5q0 83 38 166.5t94 141.5q-116 26 -174.5 120.5t-58.5 283.5q0 331 104.5 484t335.5 153q348 0 348 -391q0 -336 -100 -495t-320 -166q-44 -65 -74 -143.5t-30 -123.5q0 -41 20 -55t64 -14q46 0 132 14 zM756 502q6 80 6 141q0 138 -41 195t-141 57q-122 0 -174.5 -86t-71.5 -307q-6 -61 -6 -113q0 -138 43.5 -199t140.5 -61q115 0 171 86t73 287z" />
<glyph unicode="&#x1ec;" horiz-adv-x="1122" d="M937 1571h-523l15 143h522zM670 -336l-8 -133q-82 -20 -153 -20q-118 0 -167.5 39.5t-49.5 138.5q0 83 38.5 167t94.5 142q-141 33 -200 163.5t-59 373.5q0 53 10 198q13 152 33 260t56 198.5t89 144.5t130.5 83t181.5 29q204 0 290 -121.5t86 -382.5q0 -84 -10 -211 q-14 -155 -34.5 -266.5t-55.5 -205.5t-86 -151t-125 -89t-173 -35q-44 -64 -73.5 -143t-29.5 -124q0 -41 20 -55t64 -14q45 0 131 14zM848 723q14 168 14 246q0 184 -48.5 256.5t-160.5 72.5q-94 0 -150 -50t-91 -174t-56 -351q-12 -210 -12 -236q0 -191 48.5 -271.5 t158.5 -80.5q94 0 151.5 56t92 182.5t53.5 349.5z" />
<glyph unicode="&#x1ed;" horiz-adv-x="1044" d="M863 1161h-522l14 144h522zM632 -336l-9 -133q-82 -20 -153 -20q-118 0 -167.5 39.5t-49.5 138.5q0 83 38 166.5t94 141.5q-116 26 -174.5 120.5t-58.5 283.5q0 331 104.5 484t335.5 153q348 0 348 -391q0 -336 -100 -495t-320 -166q-44 -65 -74 -143.5t-30 -123.5 q0 -41 20 -55t64 -14q46 0 132 14zM756 502q6 80 6 141q0 138 -41 195t-141 57q-122 0 -174.5 -86t-71.5 -307q-6 -61 -6 -113q0 -138 43.5 -199t140.5 -61q115 0 171 86t73 287z" />
<glyph unicode="&#x1f0;" horiz-adv-x="501" d="M406 1024l-97 -1112q-25 -270 -278 -270q-86 0 -174 10l12 145q86 -8 147 -8q51 0 82 29.5t35 83.5l98 1122h175zM31 1438h198l109 -172l137 172h197l-250 -277h-180z" />
<glyph unicode="&#x1f4;" horiz-adv-x="1013" d="M812 1571h-177l238 276h223zM926 754l-66 -734q-185 -34 -323 -34q-99 0 -165.5 22.5t-115 78t-70.5 153t-22 245.5q0 110 12 254q16 181 45 305.5t69.5 204.5t104.5 123.5t137 59.5t181 16q87 0 227 -33l-12 -147q-161 30 -264 30q-56 0 -95 -12t-75 -47t-60.5 -98.5 t-44.5 -165.5t-33 -250q-14 -231 -14 -266q0 -102 12 -167t39 -99t60.5 -46t85.5 -12q62 0 161 15l41 454h-182l14 150h353z" />
<glyph unicode="&#x1f5;" horiz-adv-x="1032" d="M748 1161h-176l238 277h223zM152 477q28 303 142 432t355 129q125 0 285 -45l-82 -911q-9 -105 -24.5 -179.5t-41 -126.5t-55.5 -83t-77.5 -48t-96.5 -22.5t-123 -5.5q-92 0 -233 29l14 151q147 -30 242 -30q55 0 89 9t63 37.5t44.5 83.5t22.5 144l6 80 q-100 -115 -264 -115q-140 0 -205.5 87.5t-65.5 271.5q0 61 5 112zM463 154q58 0 105 24.5t75.5 64t45 83.5t20.5 90l41 465q-78 10 -136 10q-72 0 -122.5 -27t-82.5 -84.5t-50 -133.5t-29 -189q-4 -70 -4 -97q0 -107 32 -156.5t105 -49.5z" />
<glyph unicode="&#x1f8;" horiz-adv-x="1120" d="M754 1571h-155l-256 276h223zM926 0h-293l-203 1282l-111 -1282h-165l125 1434h290l203 -1282l113 1282h166z" />
<glyph unicode="&#x1f9;" horiz-adv-x="1036" d="M681 1161h-156l-256 277h224zM317 0h-174l88 1024h144l2 -119q96 133 266 133q153 0 216 -74t63 -221q0 -26 -4 -88l-56 -655h-174l55 655q7 70 7 78q0 76 -34 117t-118 41q-55 0 -99 -26t-70 -69.5t-41 -91t-19 -98.5z" />
<glyph unicode="&#x1fa;" horiz-adv-x="1024" d="M742 1874h-176l237 276h224zM821 1542q-9 -107 -80 -166l211 -1376h-178l-47 362h-403l-111 -362h-182l450 1384q-49 55 -49 136q0 101 57 166t154 65q82 0 131 -50.5t49 -133.5q0 -4 -1 -12.5t-1 -12.5zM709 516l-105 782l-233 -782h338zM702 1544v19q0 82 -69 82 q-45 0 -64.5 -34t-19.5 -81q0 -86 67 -86q46 0 64 27t22 73z" />
<glyph unicode="&#x1fb;" horiz-adv-x="1019" d="M750 1653h-176l238 276h223zM152 467q28 302 143.5 436.5t347.5 134.5q53 0 131.5 -14t130.5 -31l-65 -714q0 -1 -1 -10.5t-2 -25.5t-1 -32q0 -78 79 -78l-10 -133h-39q-140 0 -176 127q-95 -141 -282 -141q-138 0 -200.5 91.5t-62.5 270.5q0 47 7 119zM453 133 q99 0 155 64t64 155l47 531q-54 8 -111 8q-284 0 -284 -557q0 -104 30 -152.5t99 -48.5zM829 1321q-8 -93 -64.5 -151t-150.5 -58q-77 0 -125.5 53.5t-48.5 132.5q0 101 57 166.5t154 65.5q82 0 131 -50.5t49 -133.5q0 -4 -1 -12.5t-1 -12.5zM711 1323v18q0 82 -70 82 q-45 0 -64.5 -33.5t-19.5 -80.5q0 -86 68 -86q46 0 64 27t22 73z" />
<glyph unicode="&#x1fc;" horiz-adv-x="1521" d="M1157 1571h-176l237 276h224zM1389 0h-611l-10 362h-406l-147 -362h-184l610 1434h832l-15 -150h-551l15 -469h485l-12 -149h-467l16 -516h457zM745 1284l-319 -764h338z" />
<glyph unicode="&#x1fd;" horiz-adv-x="1464" d="M889 1161h-176l238 277h223zM1368 758q0 -330 -399 -330q-77 0 -156 8v-74q0 -229 156 -229q38 0 72.5 2t67 7t51 8.5t49.5 10t38 7.5l-14 -148q-50 -14 -125.5 -24t-130.5 -10q-110 0 -179.5 29.5t-105.5 111.5q-93 -141 -307 -141q-39 0 -76 7t-75 26t-66 47.5t-46 76 t-18 107.5q0 360 396 360q74 0 162 -10q12 137 12 160q0 58 -38 94.5t-106 36.5q-138 0 -299 -45l13 151q139 41 280 41q194 0 264 -108q97 108 269 108q67 0 120.5 -15.5t89 -41.5t58.5 -62.5t33 -76t10 -84.5zM438 133q47 0 85 15t60 37t34 44t14 41l18 191 q-92 10 -172 10q-81 0 -136.5 -47t-55.5 -152q0 -76 37.5 -107.5t115.5 -31.5zM1055 893q-97 0 -154 -70.5t-78 -244.5q75 -7 115 -7q146 0 206 39.5t60 139.5q0 68 -31.5 105.5t-117.5 37.5z" />
<glyph unicode="&#x1fe;" horiz-adv-x="1122" d="M780 1743h-176l237 276h224zM1032 733q-14 -159 -35 -271.5t-57 -207t-89 -151t-130.5 -87t-181.5 -30.5q-71 0 -133 16l-74 -188h-154l103 264q-115 120 -115 457q0 53 10 198q13 152 33 260t56 198.5t89 144.5t130.5 83t181.5 29q76 0 137 -18l74 190h155l-102 -264 q112 -115 112 -412q0 -84 -10 -211zM344 487q0 -119 18 -196l383 991q-43 16 -92 16q-94 0 -150 -50t-91 -174t-56 -351q-12 -210 -12 -236zM848 723q14 168 14 246q0 100 -16 172l-383 -989q35 -17 88 -17q94 0 151.5 56t92 182.5t53.5 349.5z" />
<glyph unicode="&#x1ff;" horiz-adv-x="1044" d="M704 1329h-176l237 277h223zM940 647q0 -343 -104.5 -502t-335.5 -159q-48 0 -92 6l-72 -174h-160l96 229q-120 91 -120 354q0 331 104.5 484t335.5 153q46 0 94 -10l74 178h158l-99 -235q121 -95 121 -324zM328 389q0 -102 22 -158l277 660q-28 4 -47 4 q-122 0 -174.5 -86t-71.5 -307q-6 -61 -6 -113zM756 502q6 80 6 141q0 89 -19 148l-276 -660q14 -2 45 -2q115 0 171 86t73 287z" />
<glyph unicode="&#x218;" horiz-adv-x="888" d="M479 -205l-174 -287h-139l108 287l16 194q-87 7 -173 29l14 152q133 -35 254 -35q119 0 174 80t55 246q0 101 -35 145t-110 60q-147 32 -215 106.5t-68 218.5q0 457 435 457q96 0 221 -35l-15 -149q-145 34 -233 34q-100 0 -162.5 -71t-62.5 -223q0 -81 30 -115.5 t111 -52.5q143 -30 216 -108.5t73 -242.5q0 -227 -74 -342.5t-230 -145.5z" />
<glyph unicode="&#x219;" horiz-adv-x="823" d="M475 -205l-174 -287h-139l108 287l16 193q-95 6 -175 28l14 150q155 -33 256 -33q47 0 81 17.5t51 46.5t24.5 58.5t7.5 61.5q0 56 -25.5 84t-91.5 43q-264 62 -264 258q0 178 93.5 257t272.5 79q105 0 222 -30l-13 -150l-32 8t-34 8l-32.5 6.5t-39 6t-41.5 3t-52 1.5 q-164 0 -164 -166q0 -49 29 -76.5t92 -40.5q138 -28 200 -95.5t62 -174.5q0 -146 -57 -229t-179 -110z" />
<glyph unicode="&#x21a;" horiz-adv-x="870" d="M504 -205l-174 -287h-140l109 287l16 205h11l110 1278h-315l14 156h809l-14 -156h-316l-110 -1278h16z" />
<glyph unicode="&#x21b;" horiz-adv-x="657" d="M475 -188l-174 -287h-139l108 287l16 198q-104 51 -104 207q0 5 6 80l52 573h-134l13 154h133l22 246h175l-23 -246h238l-13 -154h-237l-52 -579q-4 -40 -4 -60q0 -38 21 -67t72 -29q63 0 137 19l-13 -144q-24 -8 -85 -16z" />
<glyph unicode="&#x21e;" horiz-adv-x="1126" d="M383 1847h199l108 -172l138 172h196l-250 -276h-180zM932 0h-178l57 659h-422l-57 -659h-178l125 1434h178l-56 -623h422l56 623h178z" />
<glyph unicode="&#x21f;" horiz-adv-x="1036" d="M341 1833h199l108 -172l138 172h196l-250 -277h-180zM317 0h-174l125 1434h174l-43 -502q92 106 244 106q153 0 216 -74t63 -221q0 -26 -4 -88l-56 -655h-174l55 655q7 70 7 78q0 76 -34 117t-118 41q-55 0 -98.5 -26t-69.5 -69.5t-40.5 -91t-18.5 -98.5z" />
<glyph unicode="&#x226;" horiz-adv-x="1024" d="M714 1571h-174l16 174h174zM709 516l-105 782l-233 -782h338zM952 0h-178l-47 362h-403l-111 -362h-182l467 1434h235z" />
<glyph unicode="&#x227;" horiz-adv-x="1019" d="M740 1161h-174l17 174h174zM152 467q28 302 143.5 436.5t347.5 134.5q53 0 131.5 -14t130.5 -31l-65 -714q0 -1 -1 -10.5t-2 -25.5t-1 -32q0 -78 79 -78l-10 -133h-39q-140 0 -176 127q-95 -141 -282 -141q-138 0 -200.5 91.5t-62.5 270.5q0 47 7 119zM453 133 q99 0 155 64t64 155l47 531q-54 8 -111 8q-284 0 -284 -557q0 -104 30 -152.5t99 -48.5z" />
<glyph unicode="&#x228;" horiz-adv-x="958" d="M267 -481l13 127q55 -12 110 -12q46 0 67 14.5t21 55.5q0 29 -34 42t-125 13l59 241h-224l125 1434h671l-14 -150h-494l-41 -469h443l-13 -149h-442l-45 -516h494l-13 -150h-314l-33 -141q85 -10 121.5 -43.5t36.5 -99.5q0 -106 -65 -158.5t-175 -52.5q-57 0 -129 14z " />
<glyph unicode="&#x229;" horiz-adv-x="933" d="M259 -495l13 127q56 -12 110 -12q46 0 67 14.5t21 54.5q0 29 -34.5 42.5t-125.5 13.5l62 249q-109 20 -165.5 104.5t-56.5 268.5q0 182 27.5 312.5t81.5 208.5t128.5 114t173.5 36q83 0 145.5 -23.5t97.5 -64t51.5 -88.5t16.5 -104q0 -175 -104.5 -257.5t-294.5 -82.5 q-75 0 -151 8v-74q0 -54 8.5 -94.5t22.5 -64t34.5 -37.5t40.5 -18.5t45 -4.5q38 0 72.5 2t67 7t51.5 8t50 10t38 8l-15 -148q-99 -28 -234 -34l-33 -141q85 -10 121.5 -43.5t36.5 -99.5q0 -106 -65 -158.5t-175 -52.5q-57 0 -129 14zM559 893q-96 0 -152 -74t-75 -252 q61 -6 110 -6q143 0 205 44t62 145q0 67 -32 105t-118 38z" />
<glyph unicode="&#x22a;" horiz-adv-x="1122" d="M958 1792h-522l14 143h522zM965 1505h-174l14 164h174zM555 1505h-174l14 164h174zM848 723q14 168 14 246q0 184 -48.5 256.5t-160.5 72.5q-94 0 -150 -50t-91 -174t-56 -351q-12 -210 -12 -236q0 -191 48.5 -271.5t158.5 -80.5q94 0 151.5 56t92 182.5t53.5 349.5z M1032 733q-14 -159 -35 -271.5t-57 -207t-89 -151t-130.5 -87t-181.5 -30.5q-206 0 -289.5 132t-83.5 417q0 53 10 198q13 152 33 260t56 198.5t89 144.5t130.5 83t181.5 29q204 0 290 -121.5t86 -382.5q0 -84 -10 -211z" />
<glyph unicode="&#x22b;" horiz-adv-x="1044" d="M895 1505h-523l15 144h522zM940 647q0 -343 -104.5 -502t-335.5 -159q-85 0 -146.5 19.5t-108.5 66t-70 128.5t-23 201q0 331 104.5 484t335.5 153q348 0 348 -391zM756 502q6 80 6 141q0 138 -41 195t-141 57q-122 0 -174.5 -86t-71.5 -307q-6 -61 -6 -113 q0 -138 43.5 -199t140.5 -61q115 0 171 86t73 287zM901 1219h-174l14 163h174zM492 1219h-175l15 163h174z" />
<glyph unicode="&#x22c;" horiz-adv-x="1122" d="M859 1843h-522l14 144h522zM848 723q14 168 14 246q0 184 -48.5 256.5t-160.5 72.5q-94 0 -150 -50t-91 -174t-56 -351q-12 -210 -12 -236q0 -191 48.5 -271.5t158.5 -80.5q94 0 151.5 56t92 182.5t53.5 349.5zM1032 733q-14 -159 -35 -271.5t-57 -207t-89 -151 t-130.5 -87t-181.5 -30.5q-206 0 -289.5 132t-83.5 417q0 53 10 198q13 152 33 260t56 198.5t89 144.5t130.5 83t181.5 29q204 0 290 -121.5t86 -382.5q0 -84 -10 -211zM391 1503l15 150q87 67 182 67q50 0 118.5 -40t106.5 -40q50 0 86 17t84 57l-12 -149q-76 -68 -183 -68 q-43 0 -81 20t-73 40t-71 20q-83 0 -172 -74z" />
<glyph unicode="&#x22d;" horiz-adv-x="1044" d="M797 1556h-522l14 144h523zM940 647q0 -343 -104.5 -502t-335.5 -159q-85 0 -146.5 19.5t-108.5 66t-70 128.5t-23 201q0 331 104.5 484t335.5 153q348 0 348 -391zM756 502q6 80 6 141q0 138 -41 195t-141 57q-122 0 -174.5 -86t-71.5 -307q-6 -61 -6 -113 q0 -138 43.5 -199t140.5 -61q115 0 171 86t73 287zM330 1217l14 149q88 68 182 68q50 0 119 -40t107 -40q50 0 86 17t84 56l-13 -149q-76 -68 -182 -68q-43 0 -81 20t-73 40t-71 20q-84 0 -172 -73z" />
<glyph unicode="&#x22e;" horiz-adv-x="1122" d="M763 1571h-174l16 174h174zM848 723q14 168 14 246q0 184 -48.5 256.5t-160.5 72.5q-94 0 -150 -50t-91 -174t-56 -351q-12 -210 -12 -236q0 -191 48.5 -271.5t158.5 -80.5q94 0 151.5 56t92 182.5t53.5 349.5zM1032 733q-14 -159 -35 -271.5t-57 -207t-89 -151 t-130.5 -87t-181.5 -30.5q-206 0 -289.5 132t-83.5 417q0 53 10 198q13 152 33 260t56 198.5t89 144.5t130.5 83t181.5 29q204 0 290 -121.5t86 -382.5q0 -84 -10 -211z" />
<glyph unicode="&#x22f;" horiz-adv-x="1044" d="M689 1161h-174l16 174h174zM940 647q0 -343 -104.5 -502t-335.5 -159q-85 0 -146.5 19.5t-108.5 66t-70 128.5t-23 201q0 331 104.5 484t335.5 153q348 0 348 -391zM756 502q6 80 6 141q0 138 -41 195t-141 57q-122 0 -174.5 -86t-71.5 -307q-6 -61 -6 -113 q0 -138 43.5 -199t140.5 -61q115 0 171 86t73 287z" />
<glyph unicode="&#x230;" horiz-adv-x="1122" d="M963 1868h-522l14 143h522zM763 1571h-174l16 174h174zM848 723q14 168 14 246q0 184 -48.5 256.5t-160.5 72.5q-94 0 -150 -50t-91 -174t-56 -351q-12 -210 -12 -236q0 -191 48.5 -271.5t158.5 -80.5q94 0 151.5 56t92 182.5t53.5 349.5zM1032 733q-14 -159 -35 -271.5 t-57 -207t-89 -151t-130.5 -87t-181.5 -30.5q-206 0 -289.5 132t-83.5 417q0 53 10 198q13 152 33 260t56 198.5t89 144.5t130.5 83t181.5 29q204 0 290 -121.5t86 -382.5q0 -84 -10 -211z" />
<glyph unicode="&#x231;" horiz-adv-x="1044" d="M889 1458h-522l15 144h522zM689 1161h-174l16 174h174zM940 647q0 -343 -104.5 -502t-335.5 -159q-85 0 -146.5 19.5t-108.5 66t-70 128.5t-23 201q0 331 104.5 484t335.5 153q348 0 348 -391zM756 502q6 80 6 141q0 138 -41 195t-141 57q-122 0 -174.5 -86t-71.5 -307 q-6 -61 -6 -113q0 -138 43.5 -199t140.5 -61q115 0 171 86t73 287z" />
<glyph unicode="&#x232;" d="M879 1571h-522l15 143h522zM1069 1434l-440 -768l-58 -666h-184l57 666l-299 768h193l217 -596l324 596h190z" />
<glyph unicode="&#x233;" horiz-adv-x="948" d="M814 1161h-522l14 144h522zM944 1024l-393 -1114q-24 -68 -45 -110.5t-53 -82t-76.5 -57.5t-104.5 -18q-39 0 -114 12l12 149q58 -8 106 -8q55 0 91 92l43 113h-41l-230 1024h185l165 -846l273 846h182z" />
<glyph unicode="&#x237;" horiz-adv-x="501" d="M406 1024l-97 -1112q-25 -270 -278 -270q-86 0 -174 10l12 145q86 -8 147 -8q51 0 82 29.5t35 83.5l98 1122h175z" />
<glyph unicode="&#x2c6;" horiz-adv-x="784" d="M795 1188h-199l-107 172l-139 -172h-196l254 276h180z" />
<glyph unicode="&#x2c7;" horiz-adv-x="784" d="M178 1462h199l108 -172l138 172h196l-250 -276h-180z" />
<glyph unicode="&#x2c9;" horiz-adv-x="665" d="M680 1239h-522l14 143h522z" />
<glyph unicode="&#x2d8;" horiz-adv-x="724" d="M596 1485h166q-11 -44 -20.5 -72t-33.5 -69t-54.5 -65t-83.5 -42t-121 -18q-57 0 -103.5 17t-75.5 44t-49 63t-29 70.5t-12 71.5h168q0 -142 111 -142q64 0 94.5 38t42.5 104z" />
<glyph unicode="&#x2d9;" horiz-adv-x="335" d="M334 1260h-174l16 174h174z" />
<glyph unicode="&#x2da;" horiz-adv-x="532" d="M555 1321q-8 -93 -64.5 -151t-150.5 -58q-77 0 -125.5 53.5t-48.5 132.5q0 101 57 166.5t154 65.5q82 0 131 -50.5t49 -133.5q0 -4 -1 -12.5t-1 -12.5zM436 1323v18q0 82 -69 82q-45 0 -64.5 -33.5t-19.5 -80.5q0 -86 67 -86q46 0 64 27t22 73z" />
<glyph unicode="&#x2db;" horiz-adv-x="651" d="M475 -215l-8 -133q-86 -21 -154 -21q-118 0 -167.5 40t-49.5 139q0 85 39.5 170t97.5 143h142q-49 -64 -82 -149t-33 -134q0 -41 20 -55t64 -14q45 0 131 14z" />
<glyph unicode="&#x2dc;" horiz-adv-x="716" d="M156 1217l14 149q88 68 182 68q50 0 119 -40t107 -40q50 0 86 17t84 56l-13 -149q-76 -68 -182 -68q-43 0 -81 20t-73 40t-71 20q-84 0 -172 -73z" />
<glyph unicode="&#x2dd;" horiz-adv-x="948" d="M641 1526l-328 -301h-155l237 301h246zM989 1526l-327 -301h-156l237 301h246z" />
<glyph unicode="&#x3bc;" d="M332 270q0 -67 28 -102t105 -35q57 0 100 28t67 75.5t37 95.5t17 100l49 592h174l-88 -1024h-143l-4 109q-89 -123 -250 -123q-55 0 -117 16l-31 -350h-174l119 1372h174l-57 -672q-6 -75 -6 -82z" />
<glyph unicode="&#x3c0;" horiz-adv-x="1134" d="M1098 874h-187l-53 -634q0 -5 -1 -15t-1 -14q0 -37 14 -52.5t48 -15.5q10 0 21 2t21.5 5.5t12.5 3.5l-12 -144q-68 -14 -125 -14q-65 0 -110.5 44.5t-45.5 147.5q0 27 2 41l55 645h-256l-73 -874h-175l74 874h-160l13 150h950z" />
<glyph unicode="&#x1e00;" horiz-adv-x="1024" d="M657 -332q-8 -92 -65 -150.5t-151 -58.5q-77 0 -125.5 54t-48.5 133q0 101 57 166t154 65q83 0 132 -51t49 -133q0 -4 -1 -12.5t-1 -12.5zM538 -330v19q0 82 -70 82q-45 0 -64.5 -34t-19.5 -81q0 -86 68 -86q46 0 64 27t22 73zM709 516l-105 782l-233 -782h338zM952 0 h-178l-47 362h-403l-111 -362h-182l467 1434h235z" />
<glyph unicode="&#x1e01;" horiz-adv-x="1019" d="M573 -346q-8 -93 -64.5 -151t-150.5 -58q-77 0 -126 53.5t-49 132.5q0 101 57 166.5t154 65.5q82 0 131.5 -51t49.5 -134q0 -4 -1 -12t-1 -12zM454 -344v18q0 82 -70 82q-45 0 -64.5 -33.5t-19.5 -80.5q0 -86 68 -86q46 0 64 27t22 73zM152 467q28 302 143.5 436.5 t347.5 134.5q53 0 131.5 -14t130.5 -31l-65 -714q0 -1 -1 -10.5t-2 -25.5t-1 -32q0 -78 79 -78l-10 -133h-39q-140 0 -176 127q-95 -141 -282 -141q-138 0 -200.5 91.5t-62.5 270.5q0 47 7 119zM453 133q99 0 155 64t64 155l47 531q-54 8 -111 8q-284 0 -284 -557 q0 -104 30 -152.5t99 -48.5z" />
<glyph unicode="&#x1e02;" horiz-adv-x="1048" d="M752 1571h-174l16 174h174zM758 418q4 50 4 65q0 102 -42 149.5t-138 47.5h-191l-47 -535q100 -10 186 -10q46 0 80.5 11t67 40t53 87t27.5 145zM784 1059q4 50 4 67q0 93 -39 133.5t-135 40.5q-44 0 -86.5 -3t-63.5 -6l-20 -3l-41 -461h170q30 0 52 3t51 16.5t49 37 t36.5 68.5t22.5 107zM940 412q-11 -121 -43 -204t-88 -131.5t-130.5 -69.5t-178.5 -21q-76 0 -162.5 3.5t-135.5 6.5l-48 4l125 1434q190 14 323 14q170 0 266.5 -78.5t96.5 -241.5q0 -286 -193 -364q31 -11 58.5 -31t54.5 -52.5t43 -84.5t16 -117q0 -35 -4 -67z" />
<glyph unicode="&#x1e03;" horiz-adv-x="1021" d="M726 1556h-174l17 175h174zM918 578q-15 -170 -45 -279t-87.5 -181t-142.5 -102t-213 -30q-140 0 -287 24l125 1424h174l-45 -502q96 106 246 106q148 0 213.5 -90.5t65.5 -263.5q0 -69 -4 -106zM602 891q-57 0 -101.5 -26t-70.5 -68.5t-40.5 -88.5t-18.5 -94l-43 -475 q49 -6 137 -6q58 0 101 19.5t72.5 54.5t49.5 92t31.5 122.5t19.5 156.5q4 37 4 102q0 109 -32.5 160t-108.5 51z" />
<glyph unicode="&#x1e04;" horiz-adv-x="1048" d="M561 -311h-175l17 174h174zM758 418q4 50 4 65q0 102 -42 149.5t-138 47.5h-191l-47 -535q100 -10 186 -10q46 0 80.5 11t67 40t53 87t27.5 145zM784 1059q4 50 4 67q0 93 -39 133.5t-135 40.5q-44 0 -86.5 -3t-63.5 -6l-20 -3l-41 -461h170q30 0 52 3t51 16.5t49 37 t36.5 68.5t22.5 107zM940 412q-11 -121 -43 -204t-88 -131.5t-130.5 -69.5t-178.5 -21q-76 0 -162.5 3.5t-135.5 6.5l-48 4l125 1434q190 14 323 14q170 0 266.5 -78.5t96.5 -241.5q0 -286 -193 -364q31 -11 58.5 -31t54.5 -52.5t43 -84.5t16 -117q0 -35 -4 -67z" />
<glyph unicode="&#x1e05;" horiz-adv-x="1021" d="M491 -311h-174l16 174h174zM918 578q-15 -170 -45 -279t-87.5 -181t-142.5 -102t-213 -30q-140 0 -287 24l125 1424h174l-45 -502q96 106 246 106q148 0 213.5 -90.5t65.5 -263.5q0 -69 -4 -106zM602 891q-57 0 -101.5 -26t-70.5 -68.5t-40.5 -88.5t-18.5 -94l-43 -475 q49 -6 137 -6q58 0 101 19.5t72.5 54.5t49.5 92t31.5 122.5t19.5 156.5q4 37 4 102q0 109 -32.5 160t-108.5 51z" />
<glyph unicode="&#x1e06;" horiz-adv-x="1048" d="M737 -281h-522l14 144h522zM758 418q4 50 4 65q0 102 -42 149.5t-138 47.5h-191l-47 -535q100 -10 186 -10q46 0 80.5 11t67 40t53 87t27.5 145zM784 1059q4 50 4 67q0 93 -39 133.5t-135 40.5q-44 0 -86.5 -3t-63.5 -6l-20 -3l-41 -461h170q30 0 52 3t51 16.5t49 37 t36.5 68.5t22.5 107zM940 412q-11 -121 -43 -204t-88 -131.5t-130.5 -69.5t-178.5 -21q-76 0 -162.5 3.5t-135.5 6.5l-48 4l125 1434q190 14 323 14q170 0 266.5 -78.5t96.5 -241.5q0 -286 -193 -364q31 -11 58.5 -31t54.5 -52.5t43 -84.5t16 -117q0 -35 -4 -67z" />
<glyph unicode="&#x1e07;" horiz-adv-x="1021" d="M667 -281h-522l14 144h523zM918 578q-15 -170 -45 -279t-87.5 -181t-142.5 -102t-213 -30q-140 0 -287 24l125 1424h174l-45 -502q96 106 246 106q148 0 213.5 -90.5t65.5 -263.5q0 -69 -4 -106zM602 891q-57 0 -101.5 -26t-70.5 -68.5t-40.5 -88.5t-18.5 -94l-43 -475 q49 -6 137 -6q58 0 101 19.5t72.5 54.5t49.5 92t31.5 122.5t19.5 156.5q4 37 4 102q0 109 -32.5 160t-108.5 51z" />
<glyph unicode="&#x1e08;" horiz-adv-x="866" d="M775 1571h-176l237 276h223zM311 -395l13 127q60 -13 110 -13q46 0 67 14.5t21 55.5q0 29 -34 42t-126 13l37 154q-121 29 -178 140.5t-57 346.5q0 110 12 254q16 182 43 306t64.5 204t96.5 123.5t127 59.5t169 16q38 0 105.5 -12t95.5 -21l-15 -151q-124 30 -235 30 q-60 0 -99 -19.5t-74 -78.5t-58 -173.5t-40 -297.5q-14 -231 -14 -262q0 -82 8.5 -140.5t23 -94t39 -55.5t51 -27t64.5 -7q103 0 240 31l-14 -150q-116 -31 -224 -34l-8 -41q85 -10 121.5 -44t36.5 -100q0 -106 -65 -158.5t-175 -52.5q-52 0 -129 15z" />
<glyph unicode="&#x1e09;" horiz-adv-x="827" d="M658 1161h-176l237 277h224zM279 -395l12 127q60 -13 110 -13q46 0 67 14.5t21 55.5q0 29 -34 42t-125 13l37 150q-112 18 -164.5 100.5t-52.5 272.5q0 243 45.5 391.5t134 214t229.5 65.5q91 0 221 -32l-12 -154q-128 33 -236 33q-91 0 -135.5 -85t-64.5 -308 q-6 -73 -6 -127q0 -71 9.5 -117t30 -69.5t44 -31.5t59.5 -8q24 0 49.5 2t43.5 4t42.5 6.5t36.5 7t36.5 8t31.5 7.5l-15 -154q-101 -28 -196 -34l-9 -41q85 -10 121.5 -44t36.5 -100q0 -106 -64.5 -158.5t-174.5 -52.5q-52 0 -129 15z" />
<glyph unicode="&#x1e0a;" horiz-adv-x="1077" d="M761 1571h-174l16 174h174zM803 725q12 138 12 233q0 83 -8.5 144.5t-23 98.5t-37 59t-47 30t-56.5 8l-199 -8l-100 -1147q109 -8 195 -8q50 0 90 29.5t74.5 96.5t60 183.5t39.5 280.5zM987 739q-16 -183 -43.5 -313t-65.5 -215.5t-94 -135t-121 -69.5t-155 -20 q-71 0 -159.5 3.5t-141.5 6.5l-53 4l125 1434q190 14 331 14q76 0 131.5 -11.5t106 -43.5t82 -87t49.5 -144.5t18 -213.5q0 -79 -10 -209z" />
<glyph unicode="&#x1e0b;" horiz-adv-x="1032" d="M701 1556h-174l17 175h174zM152 467q28 306 140.5 438.5t356.5 132.5q55 0 113 -10l37 406h174l-125 -1434h-143l-11 123q-107 -137 -276 -137q-138 0 -204.5 92t-66.5 278q0 62 5 111zM463 133q56 0 102.5 25.5t75.5 67t45.5 88t20.5 94.5l43 475q-62 8 -136 8 q-72 0 -122.5 -28.5t-82.5 -88t-50 -137.5t-29 -191q-4 -70 -4 -98q0 -109 32.5 -162t104.5 -53z" />
<glyph unicode="&#x1e0c;" horiz-adv-x="1077" d="M569 -311h-174l16 174h174zM803 725q12 138 12 233q0 83 -8.5 144.5t-23 98.5t-37 59t-47 30t-56.5 8l-199 -8l-100 -1147q109 -8 195 -8q50 0 90 29.5t74.5 96.5t60 183.5t39.5 280.5zM987 739q-16 -183 -43.5 -313t-65.5 -215.5t-94 -135t-121 -69.5t-155 -20 q-71 0 -159.5 3.5t-141.5 6.5l-53 4l125 1434q190 14 331 14q76 0 131.5 -11.5t106 -43.5t82 -87t49.5 -144.5t18 -213.5q0 -79 -10 -209z" />
<glyph unicode="&#x1e0d;" horiz-adv-x="1032" d="M479 -311h-174l16 174h174zM152 467q28 306 140.5 438.5t356.5 132.5q55 0 113 -10l37 406h174l-125 -1434h-143l-11 123q-107 -137 -276 -137q-138 0 -204.5 92t-66.5 278q0 62 5 111zM463 133q56 0 102.5 25.5t75.5 67t45.5 88t20.5 94.5l43 475q-62 8 -136 8 q-72 0 -122.5 -28.5t-82.5 -88t-50 -137.5t-29 -191q-4 -70 -4 -98q0 -109 32.5 -162t104.5 -53z" />
<glyph unicode="&#x1e0e;" horiz-adv-x="1077" d="M745 -281h-522l14 144h523zM803 725q12 138 12 233q0 83 -8.5 144.5t-23 98.5t-37 59t-47 30t-56.5 8l-199 -8l-100 -1147q109 -8 195 -8q50 0 90 29.5t74.5 96.5t60 183.5t39.5 280.5zM987 739q-16 -183 -43.5 -313t-65.5 -215.5t-94 -135t-121 -69.5t-155 -20 q-71 0 -159.5 3.5t-141.5 6.5l-53 4l125 1434q190 14 331 14q76 0 131.5 -11.5t106 -43.5t82 -87t49.5 -144.5t18 -213.5q0 -79 -10 -209z" />
<glyph unicode="&#x1e0f;" horiz-adv-x="1032" d="M655 -281h-522l14 144h522zM152 467q28 306 140.5 438.5t356.5 132.5q55 0 113 -10l37 406h174l-125 -1434h-143l-11 123q-107 -137 -276 -137q-138 0 -204.5 92t-66.5 278q0 62 5 111zM463 133q56 0 102.5 25.5t75.5 67t45.5 88t20.5 94.5l43 475q-62 8 -136 8 q-72 0 -122.5 -28.5t-82.5 -88t-50 -137.5t-29 -191q-4 -70 -4 -98q0 -109 32.5 -162t104.5 -53z" />
<glyph unicode="&#x1e10;" horiz-adv-x="1077" d="M286 -495l12 127q56 -12 111 -12q46 0 67 14.5t21 54.5q0 29 -34.5 42.5t-125.5 13.5l60 243l-243 12l125 1434q190 14 331 14q76 0 131.5 -11.5t106 -43.5t82 -87t49.5 -144.5t18 -213.5q0 -79 -10 -209q-16 -178 -42 -306t-63 -213.5t-90 -136.5t-115.5 -73t-146.5 -24 l-33 -141q85 -10 121.5 -43.5t36.5 -99.5q0 -106 -65 -158.5t-175 -52.5q-57 0 -129 14zM803 725q12 138 12 233q0 83 -8.5 144.5t-23 98.5t-37 59t-47 30t-56.5 8l-199 -8l-100 -1147q109 -8 195 -8q50 0 90 30t74.5 96.5t60 183t39.5 280.5z" />
<glyph unicode="&#x1e11;" horiz-adv-x="1032" d="M196 -495l12 127q55 -12 111 -12q46 0 67 14.5t21 54.5q0 29 -34.5 42.5t-125.5 13.5l63 258h2q-165 61 -165 353q0 62 5 111q28 306 140.5 438.5t356.5 132.5q55 0 113 -10l37 406h174l-125 -1434h-143l-11 123q-103 -129 -254 -137l-33 -141q85 -10 121 -43.5t36 -99.5 q0 -106 -64.5 -158.5t-174.5 -52.5q-57 0 -129 14zM463 133q56 0 102.5 25.5t75 67t45.5 88t21 94.5l43 475q-62 8 -136 8q-72 0 -122.5 -28.5t-82.5 -88t-50 -137.5t-29 -191q-4 -70 -4 -98q0 -109 32.5 -162t104.5 -53z" />
<glyph unicode="&#x1e12;" horiz-adv-x="1077" d="M794 -414h-199l-106 172l-139 -172h-197l254 277h180zM803 725q12 138 12 233q0 83 -8.5 144.5t-23 98.5t-37 59t-47 30t-56.5 8l-199 -8l-100 -1147q109 -8 195 -8q50 0 90 29.5t74.5 96.5t60 183.5t39.5 280.5zM987 739q-16 -183 -43.5 -313t-65.5 -215.5t-94 -135 t-121 -69.5t-155 -20q-71 0 -159.5 3.5t-141.5 6.5l-53 4l125 1434q190 14 331 14q76 0 131.5 -11.5t106 -43.5t82 -87t49.5 -144.5t18 -213.5q0 -79 -10 -209z" />
<glyph unicode="&#x1e13;" horiz-adv-x="1032" d="M704 -414h-199l-106 172l-140 -172h-196l254 277h180zM152 467q28 306 140.5 438.5t356.5 132.5q55 0 113 -10l37 406h174l-125 -1434h-143l-11 123q-107 -137 -276 -137q-138 0 -204.5 92t-66.5 278q0 62 5 111zM463 133q56 0 102.5 25.5t75.5 67t45.5 88t20.5 94.5 l43 475q-62 8 -136 8q-72 0 -122.5 -28.5t-82.5 -88t-50 -137.5t-29 -191q-4 -70 -4 -98q0 -109 32.5 -162t104.5 -53z" />
<glyph unicode="&#x1e14;" horiz-adv-x="958" d="M728 1837h-155l-256 277h223zM887 1571h-523l15 143h522zM825 0h-671l125 1434h671l-14 -150h-494l-41 -469h443l-13 -149h-442l-45 -516h494z" />
<glyph unicode="&#x1e15;" horiz-adv-x="933" d="M674 1427h-156l-256 277h224zM832 1161h-522l14 144h522zM872 758q0 -175 -104.5 -257.5t-294.5 -82.5q-75 0 -151 8v-74q0 -54 8.5 -94.5t22.5 -64t34.5 -37.5t40.5 -18.5t45 -4.5q38 0 72.5 2t67 7t51.5 8t50 10t38 8l-15 -148q-50 -14 -125.5 -24t-130.5 -10 q-63 0 -109.5 8.5t-90.5 32.5t-71 65.5t-43.5 110.5t-16.5 164q0 182 27.5 312.5t81.5 208.5t128.5 114t173.5 36q83 0 145.5 -23.5t97.5 -64t51.5 -88.5t16.5 -104zM559 893q-96 0 -152 -74t-75 -252q61 -6 110 -6q143 0 205 44t62 145q0 67 -32 105t-118 38z" />
<glyph unicode="&#x1e16;" horiz-adv-x="958" d="M739 1837h-176l237 277h223zM887 1571h-523l15 143h522zM825 0h-671l125 1434h671l-14 -150h-494l-41 -469h443l-13 -149h-442l-45 -516h494z" />
<glyph unicode="&#x1e17;" horiz-adv-x="933" d="M684 1427h-176l238 277h223zM832 1161h-522l14 144h522zM872 758q0 -175 -104.5 -257.5t-294.5 -82.5q-75 0 -151 8v-74q0 -54 8.5 -94.5t22.5 -64t34.5 -37.5t40.5 -18.5t45 -4.5q38 0 72.5 2t67 7t51.5 8t50 10t38 8l-15 -148q-50 -14 -125.5 -24t-130.5 -10 q-63 0 -109.5 8.5t-90.5 32.5t-71 65.5t-43.5 110.5t-16.5 164q0 182 27.5 312.5t81.5 208.5t128.5 114t173.5 36q83 0 145.5 -23.5t97.5 -64t51.5 -88.5t16.5 -104zM559 893q-96 0 -152 -74t-75 -252q61 -6 110 -6q143 0 205 44t62 145q0 67 -32 105t-118 38z" />
<glyph unicode="&#x1e18;" horiz-adv-x="958" d="M776 -399h-199l-107 172l-139 -172h-196l253 276h181zM825 0h-671l125 1434h671l-14 -150h-494l-41 -469h443l-13 -149h-442l-45 -516h494z" />
<glyph unicode="&#x1e19;" horiz-adv-x="933" d="M767 -414h-198l-107 172l-139 -172h-197l254 277h181zM872 758q0 -175 -104.5 -257.5t-294.5 -82.5q-75 0 -151 8v-74q0 -54 8.5 -94.5t22.5 -64t34.5 -37.5t40.5 -18.5t45 -4.5q38 0 72.5 2t67 7t51.5 8t50 10t38 8l-15 -148q-50 -14 -125.5 -24t-130.5 -10 q-63 0 -109.5 8.5t-90.5 32.5t-71 65.5t-43.5 110.5t-16.5 164q0 182 27.5 312.5t81.5 208.5t128.5 114t173.5 36q83 0 145.5 -23.5t97.5 -64t51.5 -88.5t16.5 -104zM559 893q-96 0 -152 -74t-75 -252q61 -6 110 -6q143 0 205 44t62 145q0 67 -32 105t-118 38z" />
<glyph unicode="&#x1e1a;" horiz-adv-x="958" d="M173 -340l14 150q87 67 183 67q50 0 118.5 -40t106.5 -40q50 0 86 17t84 57l-12 -150q-75 -67 -183 -67q-43 0 -81 20t-73 40t-71 20q-83 0 -172 -74zM825 0h-671l125 1434h671l-14 -150h-494l-41 -469h443l-13 -149h-442l-45 -516h494z" />
<glyph unicode="&#x1e1b;" horiz-adv-x="933" d="M165 -354l14 149q88 68 182 68q50 0 119 -40t107 -40q50 0 86 17t84 57l-13 -150q-75 -67 -182 -67q-43 0 -81 20t-73 39.5t-71 19.5q-84 0 -172 -73zM872 758q0 -175 -104.5 -257.5t-294.5 -82.5q-75 0 -151 8v-74q0 -54 8.5 -94.5t22.5 -64t34.5 -37.5t40.5 -18.5 t45 -4.5q38 0 72.5 2t67 7t51.5 8t50 10t38 8l-15 -148q-50 -14 -125.5 -24t-130.5 -10q-63 0 -109.5 8.5t-90.5 32.5t-71 65.5t-43.5 110.5t-16.5 164q0 182 27.5 312.5t81.5 208.5t128.5 114t173.5 36q83 0 145.5 -23.5t97.5 -64t51.5 -88.5t16.5 -104zM559 893 q-96 0 -152 -74t-75 -252q61 -6 110 -6q143 0 205 44t62 145q0 67 -32 105t-118 38z" />
<glyph unicode="&#x1e1c;" horiz-adv-x="958" d="M774 1837h166q-11 -44 -20.5 -72t-33.5 -69t-54.5 -65t-83.5 -42t-121 -18q-71 0 -124 25t-82 66.5t-44 84.5t-18 90h168q0 -141 110 -141q64 0 94.5 37.5t42.5 103.5zM267 -481l13 127q55 -12 110 -12q46 0 67 14.5t21 55.5q0 29 -34 42t-125 13l59 241h-224l125 1434 h671l-14 -150h-494l-41 -469h443l-13 -149h-442l-45 -516h494l-13 -150h-314l-33 -141q85 -10 121.5 -43.5t36.5 -99.5q0 -106 -65 -158.5t-175 -52.5q-57 0 -129 14z" />
<glyph unicode="&#x1e1d;" horiz-adv-x="933" d="M720 1427h166q-11 -44 -20.5 -72t-33.5 -69t-54.5 -65t-83.5 -42t-121 -18q-57 0 -103.5 17t-75.5 44t-49 63t-29 70.5t-12 71.5h168q0 -141 111 -141q64 0 94.5 37.5t42.5 103.5zM259 -495l13 127q56 -12 110 -12q46 0 67 14.5t21 54.5q0 29 -34.5 42.5t-125.5 13.5 l62 249q-109 20 -165.5 104.5t-56.5 268.5q0 182 27.5 312.5t81.5 208.5t128.5 114t173.5 36q83 0 145.5 -23.5t97.5 -64t51.5 -88.5t16.5 -104q0 -175 -104.5 -257.5t-294.5 -82.5q-75 0 -151 8v-74q0 -54 8.5 -94.5t22.5 -64t34.5 -37.5t40.5 -18.5t45 -4.5q38 0 72.5 2 t67 7t51.5 8t50 10t38 8l-15 -148q-99 -28 -234 -34l-33 -141q85 -10 121.5 -43.5t36.5 -99.5q0 -106 -65 -158.5t-175 -52.5q-57 0 -129 14zM559 893q-96 0 -152 -74t-75 -252q61 -6 110 -6q143 0 205 44t62 145q0 67 -32 105t-118 38z" />
<glyph unicode="&#x1e1e;" horiz-adv-x="937" d="M713 1571h-174l16 174h174zM936 1284h-494l-43 -489h443l-13 -150h-442l-55 -645h-178l125 1434h671z" />
<glyph unicode="&#x1e1f;" horiz-adv-x="626" d="M646 1571h-174l16 174h174zM662 874h-248l-84 -962q-21 -270 -279 -270q-86 0 -174 10l12 145q86 -8 148 -8q51 0 82 29.5t35 83.5l86 972h-134l13 150h133l14 160q24 264 283 264q78 0 190 -23l-12 -147q-90 22 -164 22q-54 0 -85 -28t-36 -74l-16 -174h248z" />
<glyph unicode="&#x1e20;" horiz-adv-x="1013" d="M984 1571h-523l15 143h522zM926 754l-66 -734q-185 -34 -323 -34q-99 0 -165.5 22.5t-115 78t-70.5 153t-22 245.5q0 110 12 254q16 181 45 305.5t69.5 204.5t104.5 123.5t137 59.5t181 16q87 0 227 -33l-12 -147q-161 30 -264 30q-56 0 -95 -12t-75 -47t-60.5 -98.5 t-44.5 -165.5t-33 -250q-14 -231 -14 -266q0 -102 12 -167t39 -99t60.5 -46t85.5 -12q62 0 161 15l41 454h-182l14 150h353z" />
<glyph unicode="&#x1e21;" horiz-adv-x="1032" d="M920 1161h-522l14 144h523zM152 477q28 303 142 432t355 129q125 0 285 -45l-82 -911q-9 -105 -24.5 -179.5t-41 -126.5t-55.5 -83t-77.5 -48t-96.5 -22.5t-123 -5.5q-92 0 -233 29l14 151q147 -30 242 -30q55 0 89 9t63 37.5t44.5 83.5t22.5 144l6 80 q-100 -115 -264 -115q-140 0 -205.5 87.5t-65.5 271.5q0 61 5 112zM463 154q58 0 105 24.5t75.5 64t45 83.5t20.5 90l41 465q-78 10 -136 10q-72 0 -122.5 -27t-82.5 -84.5t-50 -133.5t-29 -189q-4 -70 -4 -97q0 -107 32 -156.5t105 -49.5z" />
<glyph unicode="&#x1e22;" horiz-adv-x="1126" d="M766 1571h-174l16 174h174zM932 0h-178l57 659h-422l-57 -659h-178l125 1434h178l-56 -623h422l56 623h178z" />
<glyph unicode="&#x1e23;" horiz-adv-x="1036" d="M724 1556h-174l17 175h174zM317 0h-174l125 1434h174l-43 -502q92 106 244 106q153 0 216 -74t63 -221q0 -26 -4 -88l-56 -655h-174l55 655q7 70 7 78q0 76 -34 117t-118 41q-55 0 -98.5 -26t-69.5 -69.5t-40.5 -91t-18.5 -98.5z" />
<glyph unicode="&#x1e24;" horiz-adv-x="1126" d="M604 -297h-175l17 174h174zM932 0h-178l57 659h-422l-57 -659h-178l125 1434h178l-56 -623h422l56 623h178z" />
<glyph unicode="&#x1e25;" horiz-adv-x="1036" d="M564 -297h-174l16 174h174zM317 0h-174l125 1434h174l-43 -502q92 106 244 106q153 0 216 -74t63 -221q0 -26 -4 -88l-56 -655h-174l55 655q7 70 7 78q0 76 -34 117t-118 41q-55 0 -98.5 -26t-69.5 -69.5t-40.5 -91t-18.5 -98.5z" />
<glyph unicode="&#x1e26;" horiz-adv-x="1126" d="M971 1571h-174l15 164h174zM562 1571h-174l14 164h174zM932 0h-178l57 659h-422l-57 -659h-178l125 1434h178l-56 -623h422l56 623h178z" />
<glyph unicode="&#x1e27;" horiz-adv-x="1036" d="M930 1556h-174l14 164h174zM520 1556h-174l14 164h174zM317 0h-174l125 1434h174l-43 -502q92 106 244 106q153 0 216 -74t63 -221q0 -26 -4 -88l-56 -655h-174l55 655q7 70 7 78q0 76 -34 117t-118 41q-55 0 -98.5 -26t-69.5 -69.5t-40.5 -91t-18.5 -98.5z" />
<glyph unicode="&#x1e28;" horiz-adv-x="1126" d="M254 -481l12 127q56 -12 111 -12q46 0 67 14.5t21 55.5q0 29 -34 42t-126 13l64 258h133l-37 -158q85 -10 121.5 -43.5t36.5 -99.5q0 -106 -65 -158.5t-175 -52.5q-57 0 -129 14zM932 0h-178l57 659h-422l-57 -659h-178l125 1434h178l-56 -623h422l56 623h178z" />
<glyph unicode="&#x1e29;" horiz-adv-x="1036" d="M214 -481l13 127q56 -12 110 -12q46 0 67 14.5t21 55.5q0 29 -34 42t-126 13l64 258h133l-37 -158q85 -10 121.5 -43.5t36.5 -99.5q0 -106 -65 -158.5t-175 -52.5q-57 0 -129 14zM317 0h-174l125 1434h174l-43 -502q92 106 244 106q153 0 216 -74t63 -221q0 -26 -4 -88 l-56 -655h-174l55 655q7 70 7 78q0 76 -34 117t-118 41q-55 0 -98.5 -26t-69.5 -69.5t-40.5 -91t-18.5 -98.5z" />
<glyph unicode="&#x1e2a;" horiz-adv-x="1126" d="M657 -123h166q-11 -44 -20.5 -72t-33.5 -69t-54.5 -65t-83.5 -42t-121 -18q-57 0 -103.5 17t-75.5 44t-49 63t-29 70.5t-12 71.5h168q0 -141 111 -141q64 0 94.5 37.5t42.5 103.5zM932 0h-178l57 659h-422l-57 -659h-178l125 1434h178l-56 -623h422l56 623h178z" />
<glyph unicode="&#x1e2b;" horiz-adv-x="1036" d="M617 -123h166q-11 -44 -20.5 -72t-33.5 -69t-54.5 -65t-83.5 -42t-121 -18q-57 0 -103.5 17t-75.5 44t-49 63t-29 70.5t-12 71.5h168q0 -141 111 -141q64 0 94.5 37.5t42.5 103.5zM317 0h-174l125 1434h174l-43 -502q92 106 244 106q153 0 216 -74t63 -221q0 -26 -4 -88 l-56 -655h-174l55 655q7 70 7 78q0 76 -34 117t-118 41q-55 0 -98.5 -26t-69.5 -69.5t-40.5 -91t-18.5 -98.5z" />
<glyph unicode="&#x1e2c;" horiz-adv-x="649" d="M-12 -340l14 150q87 67 182 67q50 0 119 -40t107 -40q50 0 86 17t84 57l-13 -150q-75 -67 -182 -67q-43 0 -81 20t-73 40t-71 20q-83 0 -172 -74zM537 0h-465l12 150h143l99 1134h-144l15 150h465l-15 -150h-143l-98 -1134h143z" />
<glyph unicode="&#x1e2d;" horiz-adv-x="501" d="M-86 -340l14 150q87 67 183 67q50 0 118.5 -40t106.5 -40q50 0 86 17t84 57l-12 -150q-75 -67 -183 -67q-43 0 -81 20t-73 40t-71 20q-83 0 -172 -74zM436 1249h-194l16 185h195zM317 0h-174l88 1024h175z" />
<glyph unicode="&#x1e2e;" horiz-adv-x="649" d="M550 1792h-176l238 276h223zM537 0h-465l12 150h143l99 1134h-144l15 150h465l-15 -150h-143l-98 -1134h143zM729 1505h-174l14 164h174zM319 1505h-174l15 164h174z" />
<glyph unicode="&#x1e2f;" horiz-adv-x="501" d="M450 1505h-176l238 277h223zM317 0h-174l88 1024h175zM629 1219h-174l14 163h174zM219 1219h-174l14 163h174z" />
<glyph unicode="&#x1e30;" horiz-adv-x="1007" d="M754 1571h-176l238 276h223zM926 0h-197l-266 657l-86 -122l-45 -535h-178l125 1434h178l-56 -629l439 629h190l-444 -627z" />
<glyph unicode="&#x1e31;" horiz-adv-x="950" d="M454 1556h-176l238 277h223zM858 0h-199l-237 508l-68 -70l-37 -438h-174l125 1434h174l-67 -762l334 352h223l-381 -395z" />
<glyph unicode="&#x1e32;" horiz-adv-x="1007" d="M600 -297h-174l17 174h174zM926 0h-197l-266 657l-86 -122l-45 -535h-178l125 1434h178l-56 -629l439 629h190l-444 -627z" />
<glyph unicode="&#x1e33;" horiz-adv-x="950" d="M562 -297h-175l17 174h174zM858 0h-199l-237 508l-68 -70l-37 -438h-174l125 1434h174l-67 -762l334 352h223l-381 -395z" />
<glyph unicode="&#x1e34;" horiz-adv-x="1007" d="M777 -266h-522l14 143h522zM926 0h-197l-266 657l-86 -122l-45 -535h-178l125 1434h178l-56 -629l439 629h190l-444 -627z" />
<glyph unicode="&#x1e35;" horiz-adv-x="950" d="M738 -266h-522l14 143h522zM858 0h-199l-237 508l-68 -70l-37 -438h-174l125 1434h174l-67 -762l334 352h223l-381 -395z" />
<glyph unicode="&#x1e36;" horiz-adv-x="839" d="M532 -297h-174l16 174h174zM788 0h-634l125 1434h178l-113 -1278h457z" />
<glyph unicode="&#x1e37;" horiz-adv-x="552" d="M376 -303h-174l17 174h174zM453 154l-13 -144q-77 -16 -125 -16q-68 0 -111.5 43.5t-43.5 146.5q0 34 4 66l104 1184h174l-100 -1153l-2.5 -27.5t-2.5 -28t-1 -14.5q0 -37 13.5 -52.5t47.5 -15.5q10 0 21.5 2t22 5.5t12.5 3.5z" />
<glyph unicode="&#x1e38;" horiz-adv-x="839" d="M640 1571h-522l14 143h522zM532 -297h-174l16 174h174zM788 0h-634l125 1434h178l-113 -1278h457z" />
<glyph unicode="&#x1e39;" horiz-adv-x="552" d="M626 1556h-522l14 144h523zM376 -303h-174l17 174h174zM453 154l-13 -144q-77 -16 -125 -16q-68 0 -111.5 43.5t-43.5 146.5q0 34 4 66l104 1184h174l-100 -1153l-2.5 -27.5t-2.5 -28t-1 -14.5q0 -37 13.5 -52.5t47.5 -15.5q10 0 21.5 2t22 5.5t12.5 3.5z" />
<glyph unicode="&#x1e3a;" horiz-adv-x="839" d="M708 -266h-522l14 143h523zM788 0h-634l125 1434h178l-113 -1278h457z" />
<glyph unicode="&#x1e3b;" horiz-adv-x="552" d="M553 -272h-523l15 143h522zM453 154l-13 -144q-77 -16 -125 -16q-68 0 -111.5 43.5t-43.5 146.5q0 34 4 66l104 1184h174l-100 -1153l-2.5 -27.5t-2.5 -28t-1 -14.5q0 -37 13.5 -52.5t47.5 -15.5q10 0 21.5 2t22 5.5t12.5 3.5z" />
<glyph unicode="&#x1e3c;" horiz-adv-x="839" d="M757 -399h-199l-106 172l-139 -172h-197l254 276h180zM788 0h-634l125 1434h178l-113 -1278h457z" />
<glyph unicode="&#x1e3d;" horiz-adv-x="552" d="M601 -406h-198l-107 173l-139 -173h-197l254 277h181zM453 154l-13 -144q-77 -16 -125 -16q-68 0 -111.5 43.5t-43.5 146.5q0 34 4 66l104 1184h174l-100 -1153l-2.5 -27.5t-2.5 -28t-1 -14.5q0 -37 13.5 -52.5t47.5 -15.5q10 0 21.5 2t22 5.5t12.5 3.5z" />
<glyph unicode="&#x1e3e;" horiz-adv-x="1290" d="M850 1571h-176l237 276h223zM1096 0h-166l110 1286l-292 -805h-170l-150 805l-111 -1286h-163l125 1434h288l121 -734l254 734h279z" />
<glyph unicode="&#x1e3f;" horiz-adv-x="1495" d="M972 1161h-176l238 277h223zM317 0h-174l88 1024h144l2 -111q88 125 246 125q189 0 237 -137q43 68 106 102.5t158 34.5q144 0 201 -71t57 -215q0 -50 -6 -117l-53 -635h-174l55 655q6 75 6 93q0 70 -28.5 106.5t-102.5 36.5q-54 0 -94.5 -25.5t-63 -69t-34 -88 t-15.5 -96.5l-51 -612h-174l55 655q7 87 7 93q0 70 -28.5 106.5t-102.5 36.5q-55 0 -95.5 -26t-63.5 -70.5t-34.5 -90t-15.5 -98.5z" />
<glyph unicode="&#x1e40;" horiz-adv-x="1290" d="M848 1571h-174l16 174h174zM1096 0h-166l110 1286l-292 -805h-170l-150 805l-111 -1286h-163l125 1434h288l121 -734l254 734h279z" />
<glyph unicode="&#x1e41;" horiz-adv-x="1495" d="M971 1161h-174l16 174h174zM317 0h-174l88 1024h144l2 -111q88 125 246 125q189 0 237 -137q43 68 106 102.5t158 34.5q144 0 201 -71t57 -215q0 -50 -6 -117l-53 -635h-174l55 655q6 75 6 93q0 70 -28.5 106.5t-102.5 36.5q-54 0 -94.5 -25.5t-63 -69t-34 -88 t-15.5 -96.5l-51 -612h-174l55 655q7 87 7 93q0 70 -28.5 106.5t-102.5 36.5q-55 0 -95.5 -26t-63.5 -70.5t-34.5 -90t-15.5 -98.5z" />
<glyph unicode="&#x1e42;" horiz-adv-x="1290" d="M685 -297h-174l17 174h174zM1096 0h-166l110 1286l-292 -805h-170l-150 805l-111 -1286h-163l125 1434h288l121 -734l254 734h279z" />
<glyph unicode="&#x1e43;" horiz-adv-x="1495" d="M794 -297h-174l16 174h174zM317 0h-174l88 1024h144l2 -111q88 125 246 125q189 0 237 -137q43 68 106 102.5t158 34.5q144 0 201 -71t57 -215q0 -50 -6 -117l-53 -635h-174l55 655q6 75 6 93q0 70 -28.5 106.5t-102.5 36.5q-54 0 -94.5 -25.5t-63 -69t-34 -88 t-15.5 -96.5l-51 -612h-174l55 655q7 87 7 93q0 70 -28.5 106.5t-102.5 36.5q-55 0 -95.5 -26t-63.5 -70.5t-34.5 -90t-15.5 -98.5z" />
<glyph unicode="&#x1e44;" horiz-adv-x="1120" d="M763 1571h-174l16 174h174zM926 0h-293l-203 1282l-111 -1282h-165l125 1434h290l203 -1282l113 1282h166z" />
<glyph unicode="&#x1e45;" horiz-adv-x="1036" d="M690 1161h-174l16 174h174zM317 0h-174l88 1024h144l2 -119q96 133 266 133q153 0 216 -74t63 -221q0 -26 -4 -88l-56 -655h-174l55 655q7 70 7 78q0 76 -34 117t-118 41q-55 0 -99 -26t-70 -69.5t-41 -91t-19 -98.5z" />
<glyph unicode="&#x1e46;" horiz-adv-x="1120" d="M600 -297h-174l17 174h174zM926 0h-293l-203 1282l-111 -1282h-165l125 1434h290l203 -1282l113 1282h166z" />
<glyph unicode="&#x1e47;" horiz-adv-x="1036" d="M564 -297h-174l16 174h174zM317 0h-174l88 1024h144l2 -119q96 133 266 133q153 0 216 -74t63 -221q0 -26 -4 -88l-56 -655h-174l55 655q7 70 7 78q0 76 -34 117t-118 41q-55 0 -99 -26t-70 -69.5t-41 -91t-19 -98.5z" />
<glyph unicode="&#x1e48;" horiz-adv-x="1120" d="M777 -266h-522l14 143h522zM926 0h-293l-203 1282l-111 -1282h-165l125 1434h290l203 -1282l113 1282h166z" />
<glyph unicode="&#x1e49;" horiz-adv-x="1036" d="M740 -266h-522l14 143h522zM317 0h-174l88 1024h144l2 -119q96 133 266 133q153 0 216 -74t63 -221q0 -26 -4 -88l-56 -655h-174l55 655q7 70 7 78q0 76 -34 117t-118 41q-55 0 -99 -26t-70 -69.5t-41 -91t-19 -98.5z" />
<glyph unicode="&#x1e4a;" horiz-adv-x="1120" d="M826 -399h-199l-106 172l-140 -172h-196l254 276h180zM926 0h-293l-203 1282l-111 -1282h-165l125 1434h290l203 -1282l113 1282h166z" />
<glyph unicode="&#x1e4b;" horiz-adv-x="1036" d="M789 -399h-199l-106 172l-140 -172h-196l254 276h180zM317 0h-174l88 1024h144l2 -119q96 133 266 133q153 0 216 -74t63 -221q0 -26 -4 -88l-56 -655h-174l55 655q7 70 7 78q0 76 -34 117t-118 41q-55 0 -99 -26t-70 -69.5t-41 -91t-19 -98.5z" />
<glyph unicode="&#x1e4c;" horiz-adv-x="1122" d="M687 1843h-176l237 277h223zM848 723q14 168 14 246q0 184 -48.5 256.5t-160.5 72.5q-94 0 -150 -50t-91 -174t-56 -351q-12 -210 -12 -236q0 -191 48.5 -271.5t158.5 -80.5q94 0 151.5 56t92 182.5t53.5 349.5zM1032 733q-14 -159 -35 -271.5t-57 -207t-89 -151 t-130.5 -87t-181.5 -30.5q-206 0 -289.5 132t-83.5 417q0 53 10 198q13 152 33 260t56 198.5t89 144.5t130.5 83t181.5 29q204 0 290 -121.5t86 -382.5q0 -84 -10 -211zM391 1503l15 150q87 67 182 67q50 0 118.5 -40t106.5 -40q50 0 86 17t84 57l-12 -149q-76 -68 -183 -68 q-43 0 -81 20t-73 40t-71 20q-83 0 -172 -74z" />
<glyph unicode="&#x1e4d;" horiz-adv-x="1044" d="M625 1556h-176l238 277h223zM940 647q0 -343 -104.5 -502t-335.5 -159q-85 0 -146.5 19.5t-108.5 66t-70 128.5t-23 201q0 331 104.5 484t335.5 153q348 0 348 -391zM756 502q6 80 6 141q0 138 -41 195t-141 57q-122 0 -174.5 -86t-71.5 -307q-6 -61 -6 -113 q0 -138 43.5 -199t140.5 -61q115 0 171 86t73 287zM330 1217l14 149q88 68 182 68q50 0 119 -40t107 -40q50 0 86 17t84 56l-13 -149q-76 -68 -182 -68q-43 0 -81 20t-73 40t-71 20q-84 0 -172 -73z" />
<glyph unicode="&#x1e4e;" horiz-adv-x="1122" d="M890 1843h-174l15 164h174zM481 1843h-174l14 164h174zM848 723q14 168 14 246q0 184 -48.5 256.5t-160.5 72.5q-94 0 -150 -50t-91 -174t-56 -351q-12 -210 -12 -236q0 -191 48.5 -271.5t158.5 -80.5q94 0 151.5 56t92 182.5t53.5 349.5zM1032 733q-14 -159 -35 -271.5 t-57 -207t-89 -151t-130.5 -87t-181.5 -30.5q-206 0 -289.5 132t-83.5 417q0 53 10 198q13 152 33 260t56 198.5t89 144.5t130.5 83t181.5 29q204 0 290 -121.5t86 -382.5q0 -84 -10 -211zM391 1503l15 150q87 67 182 67q50 0 118.5 -40t106.5 -40q50 0 86 17t84 57 l-12 -149q-76 -68 -183 -68q-43 0 -81 20t-73 40t-71 20q-83 0 -172 -74z" />
<glyph unicode="&#x1e4f;" horiz-adv-x="1044" d="M829 1556h-174l14 164h174zM419 1556h-174l15 164h174zM940 647q0 -343 -104.5 -502t-335.5 -159q-85 0 -146.5 19.5t-108.5 66t-70 128.5t-23 201q0 331 104.5 484t335.5 153q348 0 348 -391zM756 502q6 80 6 141q0 138 -41 195t-141 57q-122 0 -174.5 -86t-71.5 -307 q-6 -61 -6 -113q0 -138 43.5 -199t140.5 -61q115 0 171 86t73 287zM330 1217l14 149q88 68 182 68q50 0 119 -40t107 -40q50 0 86 17t84 56l-13 -149q-76 -68 -182 -68q-43 0 -81 20t-73 40t-71 20q-84 0 -172 -73z" />
<glyph unicode="&#x1e50;" horiz-adv-x="1122" d="M778 1837h-155l-256 277h223zM937 1571h-523l15 143h522zM848 723q14 168 14 246q0 184 -48.5 256.5t-160.5 72.5q-94 0 -150 -50t-91 -174t-56 -351q-12 -210 -12 -236q0 -191 48.5 -271.5t158.5 -80.5q94 0 151.5 56t92 182.5t53.5 349.5zM1032 733 q-14 -159 -35 -271.5t-57 -207t-89 -151t-130.5 -87t-181.5 -30.5q-206 0 -289.5 132t-83.5 417q0 53 10 198q13 152 33 260t56 198.5t89 144.5t130.5 83t181.5 29q204 0 290 -121.5t86 -382.5q0 -84 -10 -211z" />
<glyph unicode="&#x1e51;" horiz-adv-x="1044" d="M705 1427h-156l-256 277h223zM863 1161h-522l14 144h522zM940 647q0 -343 -104.5 -502t-335.5 -159q-85 0 -146.5 19.5t-108.5 66t-70 128.5t-23 201q0 331 104.5 484t335.5 153q348 0 348 -391zM756 502q6 80 6 141q0 138 -41 195t-141 57q-122 0 -174.5 -86t-71.5 -307 q-6 -61 -6 -113q0 -138 43.5 -199t140.5 -61q115 0 171 86t73 287z" />
<glyph unicode="&#x1e52;" horiz-adv-x="1122" d="M789 1837h-176l237 277h223zM937 1571h-523l15 143h522zM848 723q14 168 14 246q0 184 -48.5 256.5t-160.5 72.5q-94 0 -150 -50t-91 -174t-56 -351q-12 -210 -12 -236q0 -191 48.5 -271.5t158.5 -80.5q94 0 151.5 56t92 182.5t53.5 349.5zM1032 733q-14 -159 -35 -271.5 t-57 -207t-89 -151t-130.5 -87t-181.5 -30.5q-206 0 -289.5 132t-83.5 417q0 53 10 198q13 152 33 260t56 198.5t89 144.5t130.5 83t181.5 29q204 0 290 -121.5t86 -382.5q0 -84 -10 -211z" />
<glyph unicode="&#x1e53;" horiz-adv-x="1044" d="M715 1427h-176l237 277h224zM863 1161h-522l14 144h522zM940 647q0 -343 -104.5 -502t-335.5 -159q-85 0 -146.5 19.5t-108.5 66t-70 128.5t-23 201q0 331 104.5 484t335.5 153q348 0 348 -391zM756 502q6 80 6 141q0 138 -41 195t-141 57q-122 0 -174.5 -86t-71.5 -307 q-6 -61 -6 -113q0 -138 43.5 -199t140.5 -61q115 0 171 86t73 287z" />
<glyph unicode="&#x1e54;" horiz-adv-x="1024" d="M724 1571h-177l238 276h223zM805 999q4 62 4 84q0 112 -40 164.5t-132 52.5q-50 0 -98.5 -3t-71.5 -6l-23 -3l-51 -577h193q94 0 150 65t69 223zM993 1083q0 -21 -6 -96q-19 -221 -119 -323.5t-317 -102.5h-172l-47 -561h-178l125 1434q176 14 346 14q191 0 279.5 -97 t88.5 -268z" />
<glyph unicode="&#x1e55;" horiz-adv-x="1021" d="M742 1161h-176l237 277h224zM287 -348h-174l118 1372h144l4 -115q99 129 264 129q148 0 213.5 -90.5t65.5 -263.5q0 -62 -7 -127q-14 -161 -44 -266t-86.5 -175.5t-142 -100t-212.5 -29.5q-41 0 -115 8zM602 891q-52 0 -93.5 -23t-66 -57t-42 -80.5t-25 -85.5t-10.5 -80 l-37 -426q46 -6 137 -6q133 0 192.5 100.5t79.5 323.5q6 56 6 123q0 109 -32.5 160t-108.5 51z" />
<glyph unicode="&#x1e56;" horiz-adv-x="1024" d="M722 1571h-174l16 174h174zM805 999q4 62 4 84q0 112 -40 164.5t-132 52.5q-50 0 -98.5 -3t-71.5 -6l-23 -3l-51 -577h193q94 0 150 65t69 223zM993 1083q0 -21 -6 -96q-19 -221 -119 -323.5t-317 -102.5h-172l-47 -561h-178l125 1434q176 14 346 14q191 0 279.5 -97 t88.5 -268z" />
<glyph unicode="&#x1e57;" horiz-adv-x="1021" d="M740 1161h-174l17 174h174zM287 -348h-174l118 1372h144l4 -115q99 129 264 129q148 0 213.5 -90.5t65.5 -263.5q0 -62 -7 -127q-14 -161 -44 -266t-86.5 -175.5t-142 -100t-212.5 -29.5q-41 0 -115 8zM602 891q-52 0 -93.5 -23t-66 -57t-42 -80.5t-25 -85.5t-10.5 -80 l-37 -426q46 -6 137 -6q133 0 192.5 100.5t79.5 323.5q6 56 6 123q0 109 -32.5 160t-108.5 51z" />
<glyph unicode="&#x1e58;" horiz-adv-x="1064" d="M722 1571h-174l16 174h174zM987 1030q-16 -167 -72 -268t-167 -141l225 -621h-193l-207 594h-190l-51 -594h-178l125 1434q176 14 346 14q193 0 279.5 -91t86.5 -259q0 -22 -4 -68zM803 1016q4 58 4 78q0 109 -39 157.5t-131 48.5q-50 0 -98.5 -3t-71.5 -6l-23 -3 l-49 -545h193q95 0 148 58t67 215z" />
<glyph unicode="&#x1e59;" horiz-adv-x="692" d="M569 1161h-174l16 174h174zM709 1026l-15 -178q-70 16 -123 16q-49 0 -87.5 -27t-62 -72t-36.5 -95t-18 -105l-50 -565h-174l88 1024h144l4 -127q91 141 223 141q49 0 107 -12z" />
<glyph unicode="&#x1e5a;" horiz-adv-x="1064" d="M624 -297h-174l16 174h174zM987 1030q-16 -167 -72 -268t-167 -141l225 -621h-193l-207 594h-190l-51 -594h-178l125 1434q176 14 346 14q193 0 279.5 -91t86.5 -259q0 -22 -4 -68zM803 1016q4 58 4 78q0 109 -39 157.5t-131 48.5q-50 0 -98.5 -3t-71.5 -6l-23 -3 l-49 -545h193q95 0 148 58t67 215z" />
<glyph unicode="&#x1e5b;" horiz-adv-x="692" d="M291 -297h-174l17 174h174zM709 1026l-15 -178q-70 16 -123 16q-49 0 -87.5 -27t-62 -72t-36.5 -95t-18 -105l-50 -565h-174l88 1024h144l4 -127q91 141 223 141q49 0 107 -12z" />
<glyph unicode="&#x1e5c;" horiz-adv-x="1064" d="M896 1571h-523l15 143h522zM624 -297h-174l16 174h174zM987 1030q-16 -167 -72 -268t-167 -141l225 -621h-193l-207 594h-190l-51 -594h-178l125 1434q176 14 346 14q193 0 279.5 -91t86.5 -259q0 -22 -4 -68zM803 1016q4 58 4 78q0 109 -39 157.5t-131 48.5 q-50 0 -98.5 -3t-71.5 -6l-23 -3l-49 -545h193q95 0 148 58t67 215z" />
<glyph unicode="&#x1e5d;" horiz-adv-x="692" d="M873 1161h-522l14 144h522zM291 -297h-174l17 174h174zM709 1026l-15 -178q-70 16 -123 16q-49 0 -87.5 -27t-62 -72t-36.5 -95t-18 -105l-50 -565h-174l88 1024h144l4 -127q91 141 223 141q49 0 107 -12z" />
<glyph unicode="&#x1e5e;" horiz-adv-x="1064" d="M800 -266h-522l15 143h522zM987 1030q-16 -167 -72 -268t-167 -141l225 -621h-193l-207 594h-190l-51 -594h-178l125 1434q176 14 346 14q193 0 279.5 -91t86.5 -259q0 -22 -4 -68zM803 1016q4 58 4 78q0 109 -39 157.5t-131 48.5q-50 0 -98.5 -3t-71.5 -6l-23 -3 l-49 -545h193q95 0 148 58t67 215z" />
<glyph unicode="&#x1e5f;" horiz-adv-x="692" d="M468 -266h-523l15 143h522zM709 1026l-15 -178q-70 16 -123 16q-49 0 -87.5 -27t-62 -72t-36.5 -95t-18 -105l-50 -565h-174l88 1024h144l4 -127q91 141 223 141q49 0 107 -12z" />
<glyph unicode="&#x1e60;" horiz-adv-x="888" d="M718 1571h-174l16 174h174zM799 485q0 -271 -105.5 -385t-335.5 -114q-117 0 -241 32l14 152q133 -35 254 -35q119 0 174 80t55 246q0 101 -35 145t-110 60q-147 32 -215 106.5t-68 218.5q0 457 435 457q96 0 221 -35l-15 -149q-145 34 -233 34q-100 0 -162.5 -71 t-62.5 -223q0 -81 30 -115.5t111 -52.5q143 -30 216 -108.5t73 -242.5z" />
<glyph unicode="&#x1e61;" horiz-adv-x="823" d="M628 1161h-174l16 174h174zM727 338q0 -182 -89.5 -267t-283.5 -85q-131 0 -243 30l14 150q155 -33 256 -33q47 0 81 17.5t51 46.5t24.5 58.5t7.5 61.5q0 56 -25.5 84t-91.5 43q-264 60 -264 258q0 178 93.5 257t272.5 79q105 0 222 -30l-13 -150l-32 8t-34 8l-32.5 6.5 t-39 6t-41.5 3t-52 1.5q-164 0 -164 -166q0 -49 29 -77t92 -40q138 -28 200 -95.5t62 -174.5z" />
<glyph unicode="&#x1e62;" horiz-adv-x="888" d="M419 -311h-174l17 174h174zM799 485q0 -271 -105.5 -385t-335.5 -114q-117 0 -241 32l14 152q133 -35 254 -35q119 0 174 80t55 246q0 101 -35 145t-110 60q-147 32 -215 106.5t-68 218.5q0 457 435 457q96 0 221 -35l-15 -149q-145 34 -233 34q-100 0 -162.5 -71 t-62.5 -223q0 -81 30 -115.5t111 -52.5q143 -30 216 -108.5t73 -242.5z" />
<glyph unicode="&#x1e63;" horiz-adv-x="823" d="M415 -311h-174l16 174h175zM727 338q0 -182 -89.5 -267t-283.5 -85q-131 0 -243 30l14 150q155 -33 256 -33q47 0 81 17.5t51 46.5t24.5 58.5t7.5 61.5q0 56 -25.5 84t-91.5 43q-264 60 -264 258q0 178 93.5 257t272.5 79q105 0 222 -30l-13 -150l-32 8t-34 8l-32.5 6.5 t-39 6t-41.5 3t-52 1.5q-164 0 -164 -166q0 -49 29 -77t92 -40q138 -28 200 -95.5t62 -174.5z" />
<glyph unicode="&#x1e64;" horiz-adv-x="888" d="M990 1970h-174l16 174h174zM719 1571h-176l238 276h223zM799 485q0 -271 -105.5 -385t-335.5 -114q-117 0 -241 32l14 152q133 -35 254 -35q119 0 174 80t55 246q0 101 -35 145t-110 60q-147 32 -215 106.5t-68 218.5q0 457 435 457q96 0 221 -35l-15 -149 q-145 34 -233 34q-100 0 -162.5 -71t-62.5 -223q0 -81 30 -115.5t111 -52.5q143 -30 216 -108.5t73 -242.5z" />
<glyph unicode="&#x1e65;" horiz-adv-x="823" d="M900 1561h-174l16 174h174zM629 1161h-176l238 277h223zM727 338q0 -182 -89.5 -267t-283.5 -85q-131 0 -243 30l14 150q155 -33 256 -33q47 0 81 17.5t51 46.5t24.5 58.5t7.5 61.5q0 56 -25.5 84t-91.5 43q-264 60 -264 258q0 178 93.5 257t272.5 79q105 0 222 -30 l-13 -150l-32 8t-34 8l-32.5 6.5t-39 6t-41.5 3t-52 1.5q-164 0 -164 -166q0 -49 29 -77t92 -40q138 -28 200 -95.5t62 -174.5z" />
<glyph unicode="&#x1e66;" horiz-adv-x="888" d="M709 1851h-175l17 174h174zM291 1729h198l111 -138l135 138h197l-250 -236h-180zM799 485q0 -271 -105.5 -385t-335.5 -114q-117 0 -241 32l14 152q133 -35 254 -35q119 0 174 80t55 246q0 101 -35 145t-110 60q-147 32 -215 106.5t-68 218.5q0 457 435 457q96 0 221 -35 l-15 -149q-145 34 -233 34q-100 0 -162.5 -71t-62.5 -223q0 -81 30 -115.5t111 -52.5q143 -30 216 -108.5t73 -242.5z" />
<glyph unicode="&#x1e67;" horiz-adv-x="823" d="M637 1585h-174l16 174h174zM727 338q0 -182 -89.5 -267t-283.5 -85q-131 0 -243 30l14 150q155 -33 256 -33q47 0 81 17.5t51 46.5t24.5 58.5t7.5 61.5q0 56 -25.5 84t-91.5 43q-264 60 -264 258q0 178 93.5 257t272.5 79q105 0 222 -30l-13 -150l-32 8t-34 8l-32.5 6.5 t-39 6t-41.5 3t-52 1.5q-164 0 -164 -166q0 -49 29 -77t92 -40q138 -28 200 -95.5t62 -174.5zM219 1462h199l108 -172l138 172h196l-250 -276h-180z" />
<glyph unicode="&#x1e68;" horiz-adv-x="888" d="M718 1571h-174l16 174h174zM419 -311h-174l17 174h174zM799 485q0 -271 -105.5 -385t-335.5 -114q-117 0 -241 32l14 152q133 -35 254 -35q119 0 174 80t55 246q0 101 -35 145t-110 60q-147 32 -215 106.5t-68 218.5q0 457 435 457q96 0 221 -35l-15 -149 q-145 34 -233 34q-100 0 -162.5 -71t-62.5 -223q0 -81 30 -115.5t111 -52.5q143 -30 216 -108.5t73 -242.5z" />
<glyph unicode="&#x1e69;" horiz-adv-x="823" d="M628 1161h-174l16 174h174zM415 -311h-174l16 174h175zM727 338q0 -182 -89.5 -267t-283.5 -85q-131 0 -243 30l14 150q155 -33 256 -33q47 0 81 17.5t51 46.5t24.5 58.5t7.5 61.5q0 56 -25.5 84t-91.5 43q-264 60 -264 258q0 178 93.5 257t272.5 79q105 0 222 -30 l-13 -150l-32 8t-34 8l-32.5 6.5t-39 6t-41.5 3t-52 1.5q-164 0 -164 -166q0 -49 29 -77t92 -40q138 -28 200 -95.5t62 -174.5z" />
<glyph unicode="&#x1e6a;" horiz-adv-x="870" d="M638 1571h-174l16 174h174zM930 1278h-316l-110 -1278h-178l110 1278h-315l14 156h809z" />
<glyph unicode="&#x1e6b;" horiz-adv-x="657" d="M459 1393h-174l16 174h174zM651 870h-237l-52 -579q-4 -40 -4 -60q0 -38 21 -67t72 -29q63 0 137 19l-13 -144q-74 -22 -178 -22q-112 0 -163.5 61.5t-51.5 167.5q0 5 6 80l52 573h-134l13 154h133l22 246h175l-23 -246h238z" />
<glyph unicode="&#x1e6c;" horiz-adv-x="870" d="M476 -297h-175l17 174h174zM930 1278h-316l-110 -1278h-178l110 1278h-315l14 156h809z" />
<glyph unicode="&#x1e6d;" horiz-adv-x="657" d="M458 -309h-174l16 174h175zM651 870h-237l-52 -579q-4 -40 -4 -60q0 -38 21 -67t72 -29q63 0 137 19l-13 -144q-74 -22 -178 -22q-112 0 -163.5 61.5t-51.5 167.5q0 5 6 80l52 573h-134l13 154h133l22 246h175l-23 -246h238z" />
<glyph unicode="&#x1e6e;" horiz-adv-x="870" d="M652 -266h-522l14 143h522zM930 1278h-316l-110 -1278h-178l110 1278h-315l14 156h809z" />
<glyph unicode="&#x1e6f;" horiz-adv-x="657" d="M635 -279h-523l15 144h522zM651 870h-237l-52 -579q-4 -40 -4 -60q0 -38 21 -67t72 -29q63 0 137 19l-13 -144q-74 -22 -178 -22q-112 0 -163.5 61.5t-51.5 167.5q0 5 6 80l52 573h-134l13 154h133l22 246h175l-23 -246h238z" />
<glyph unicode="&#x1e70;" horiz-adv-x="870" d="M701 -399h-199l-106 172l-140 -172h-196l254 276h180zM930 1278h-316l-110 -1278h-178l110 1278h-315l14 156h809z" />
<glyph unicode="&#x1e71;" horiz-adv-x="657" d="M683 -412h-198l-107 172l-139 -172h-197l254 277h181zM651 870h-237l-52 -579q-4 -40 -4 -60q0 -38 21 -67t72 -29q63 0 137 19l-13 -144q-74 -22 -178 -22q-112 0 -163.5 61.5t-51.5 167.5q0 5 6 80l52 573h-134l13 154h133l22 246h175l-23 -246h238z" />
<glyph unicode="&#x1e72;" horiz-adv-x="1095" d="M793 -301h-174l15 164h174zM384 -301h-174l14 164h174zM1036 1434l-92 -1055q-18 -203 -123.5 -298t-294.5 -95q-160 0 -256 84t-96 254q0 39 4 75l90 1035h178l-92 -1051q-4 -66 -4 -72q0 -89 49.5 -132.5t139.5 -43.5q96 0 155 50.5t68 154.5l96 1094h178z" />
<glyph unicode="&#x1e73;" d="M691 -301h-174l14 164h174zM281 -301h-174l15 164h174zM221 1024h174l-57 -676q-4 -58 -4 -80q0 -67 27.5 -101t103.5 -34q57 0 100 28t67 75.5t37 95.5t17 100l49 592h174l-88 -1024h-143l-4 109q-89 -123 -250 -123q-148 0 -205 69.5t-57 210.5q0 29 4 103z" />
<glyph unicode="&#x1e74;" horiz-adv-x="1095" d="M210 -354l14 149q88 68 183 68q50 0 118.5 -40t106.5 -40q50 0 86 17t84 57l-12 -150q-75 -67 -183 -67q-43 0 -81 20t-73 39.5t-71 19.5q-84 0 -172 -73zM1036 1434l-92 -1055q-18 -203 -123.5 -298t-294.5 -95q-160 0 -256 84t-96 254q0 39 4 75l90 1035h178l-92 -1051 q-4 -66 -4 -72q0 -89 49.5 -132.5t139.5 -43.5q96 0 155 50.5t68 154.5l96 1094h178z" />
<glyph unicode="&#x1e75;" d="M108 -354l14 149q88 68 182 68q50 0 118.5 -40t106.5 -40q50 0 86 17t84 57l-12 -150q-75 -67 -182 -67q-43 0 -81 20t-73 39.5t-71 19.5q-84 0 -172 -73zM221 1024h174l-57 -676q-4 -58 -4 -80q0 -67 27.5 -101t103.5 -34q57 0 100 28t67 75.5t37 95.5t17 100l49 592 h174l-88 -1024h-143l-4 109q-89 -123 -250 -123q-148 0 -205 69.5t-57 210.5q0 29 4 103z" />
<glyph unicode="&#x1e76;" horiz-adv-x="1095" d="M812 -414h-198l-107 172l-139 -172h-197l254 277h181zM1036 1434l-92 -1055q-18 -203 -123.5 -298t-294.5 -95q-160 0 -256 84t-96 254q0 39 4 75l90 1035h178l-92 -1051q-4 -66 -4 -72q0 -89 49.5 -132.5t139.5 -43.5q96 0 155 50.5t68 154.5l96 1094h178z" />
<glyph unicode="&#x1e77;" d="M710 -414h-199l-106 172l-139 -172h-197l254 277h180zM221 1024h174l-57 -676q-4 -58 -4 -80q0 -67 27.5 -101t103.5 -34q57 0 100 28t67 75.5t37 95.5t17 100l49 592h174l-88 -1024h-143l-4 109q-89 -123 -250 -123q-148 0 -205 69.5t-57 210.5q0 29 4 103z" />
<glyph unicode="&#x1e78;" horiz-adv-x="1095" d="M673 1917h-176l238 276h223zM378 1577l14 149q88 68 182 68q50 0 119 -40t107 -40q50 0 86 17t84 57l-13 -150q-75 -67 -182 -67q-43 0 -81 20t-73 40t-71 20q-83 0 -172 -74zM1036 1434l-92 -1055q-18 -203 -123.5 -298t-294.5 -95q-160 0 -256 84t-96 254q0 39 4 75 l90 1035h178l-92 -1051q-4 -66 -4 -72q0 -89 49.5 -132.5t139.5 -43.5q96 0 155 50.5t68 154.5l96 1094h178z" />
<glyph unicode="&#x1e79;" d="M586 1507h-176l238 277h223zM291 1167l14 150q87 67 182 67q50 0 119 -39.5t107 -39.5q50 0 86 17t84 56l-13 -149q-76 -68 -182 -68q-43 0 -81 20t-73 40t-71 20q-83 0 -172 -74zM221 1024h174l-57 -676q-4 -58 -4 -80q0 -67 27.5 -101t103.5 -34q57 0 100 28t67 75.5 t37 95.5t17 100l49 592h174l-88 -1024h-143l-4 109q-89 -123 -250 -123q-148 0 -205 69.5t-57 210.5q0 29 4 103z" />
<glyph unicode="&#x1e7a;" horiz-adv-x="1095" d="M980 1837h-174l15 164h174zM571 1837h-174l14 164h174zM925 1571h-523l15 143h522zM1036 1434l-92 -1055q-18 -203 -123.5 -298t-294.5 -95q-160 0 -256 84t-96 254q0 39 4 75l90 1035h178l-92 -1051q-4 -66 -4 -72q0 -89 49.5 -132.5t139.5 -43.5q96 0 155 50.5 t68 154.5l96 1094h178z" />
<glyph unicode="&#x1e7b;" d="M893 1427h-174l15 164h174zM484 1427h-174l14 164h174zM837 1161h-522l15 144h522zM221 1024h174l-57 -676q-4 -58 -4 -80q0 -67 27.5 -101t103.5 -34q57 0 100 28t67 75.5t37 95.5t17 100l49 592h174l-88 -1024h-143l-4 109q-89 -123 -250 -123q-148 0 -205 69.5 t-57 210.5q0 29 4 103z" />
<glyph unicode="&#x1e7c;" horiz-adv-x="968" d="M314 1577l15 149q88 68 182 68q50 0 118.5 -40t106.5 -40q50 0 86 17t84 57l-12 -150q-75 -67 -182 -67q-43 0 -81 20t-73.5 40t-71.5 20q-83 0 -172 -74zM1001 1434l-426 -1434h-243l-156 1434h180l115 -1254l354 1254h176z" />
<glyph unicode="&#x1e7d;" horiz-adv-x="946" d="M266 1167l14 150q87 67 183 67q50 0 118.5 -39.5t106.5 -39.5q50 0 86 17t84 56l-12 -149q-76 -68 -183 -68q-43 0 -81 20t-73 40t-71 20q-83 0 -172 -74zM942 1024l-362 -1024h-252l-189 1024h183l145 -883l293 883h182z" />
<glyph unicode="&#x1e7e;" horiz-adv-x="968" d="M514 -297h-174l17 174h174zM1001 1434l-426 -1434h-243l-156 1434h180l115 -1254l354 1254h176z" />
<glyph unicode="&#x1e7f;" horiz-adv-x="946" d="M514 -297h-174l17 174h174zM942 1024l-362 -1024h-252l-189 1024h183l145 -883l293 883h182z" />
<glyph unicode="&#x1e80;" horiz-adv-x="1236" d="M813 1571h-156l-256 276h223zM1208 1434l-194 -1434h-279l-84 623l-202 -623h-267l56 1434h157l-55 -1321l244 716h168l127 -716l180 1321h149z" />
<glyph unicode="&#x1e81;" horiz-adv-x="1372" d="M844 1161h-156l-256 277h223zM1358 1024l-291 -1024h-268l-82 555l-189 -555h-262l-116 1024h178l86 -893l245 709h175l108 -709l244 893h172z" />
<glyph unicode="&#x1e82;" horiz-adv-x="1236" d="M823 1571h-176l238 276h223zM1208 1434l-194 -1434h-279l-84 623l-202 -623h-267l56 1434h157l-55 -1321l244 716h168l127 -716l180 1321h149z" />
<glyph unicode="&#x1e83;" horiz-adv-x="1372" d="M854 1161h-176l237 277h223zM1358 1024l-291 -1024h-268l-82 555l-189 -555h-262l-116 1024h178l86 -893l245 709h175l108 -709l244 893h172z" />
<glyph unicode="&#x1e84;" horiz-adv-x="1236" d="M1027 1571h-174l14 164h174zM617 1571h-174l14 164h175zM1208 1434l-194 -1434h-279l-84 623l-202 -623h-267l56 1434h157l-55 -1321l244 716h168l127 -716l180 1321h149z" />
<glyph unicode="&#x1e85;" horiz-adv-x="1372" d="M1058 1161h-175l15 164h174zM648 1161h-174l14 164h174zM1358 1024l-291 -1024h-268l-82 555l-189 -555h-262l-116 1024h178l86 -893l245 709h175l108 -709l244 893h172z" />
<glyph unicode="&#x1e86;" horiz-adv-x="1236" d="M821 1571h-174l17 174h174zM1208 1434l-194 -1434h-279l-84 623l-202 -623h-267l56 1434h157l-55 -1321l244 716h168l127 -716l180 1321h149z" />
<glyph unicode="&#x1e87;" horiz-adv-x="1372" d="M852 1161h-174l16 174h175zM1358 1024l-291 -1024h-268l-82 555l-189 -555h-262l-116 1024h178l86 -893l245 709h175l108 -709l244 893h172z" />
<glyph unicode="&#x1e88;" horiz-adv-x="1236" d="M659 -297h-174l16 174h174zM1208 1434l-194 -1434h-279l-84 623l-202 -623h-267l56 1434h157l-55 -1321l244 716h168l127 -716l180 1321h149z" />
<glyph unicode="&#x1e89;" horiz-adv-x="1372" d="M727 -297h-174l17 174h174zM1358 1024l-291 -1024h-268l-82 555l-189 -555h-262l-116 1024h178l86 -893l245 709h175l108 -709l244 893h172z" />
<glyph unicode="&#x1e8a;" horiz-adv-x="1015" d="M716 1571h-174l16 174h174zM924 0h-197l-188 553l-291 -553h-197l412 741l-256 693h190l174 -498l263 498h194l-385 -691z" />
<glyph unicode="&#x1e8b;" horiz-adv-x="950" d="M645 1161h-174l17 174h174zM858 0h-203l-161 375l-238 -375h-195l342 528l-229 496h201l143 -334l209 334h193l-320 -487z" />
<glyph unicode="&#x1e8c;" horiz-adv-x="1015" d="M921 1571h-174l15 164h174zM512 1571h-174l14 164h174zM924 0h-197l-188 553l-291 -553h-197l412 741l-256 693h190l174 -498l263 498h194l-385 -691z" />
<glyph unicode="&#x1e8d;" horiz-adv-x="950" d="M851 1161h-174l14 164h174zM441 1161h-174l14 164h174zM858 0h-203l-161 375l-238 -375h-195l342 528l-229 496h201l143 -334l209 334h193l-320 -487z" />
<glyph unicode="&#x1e8e;" d="M706 1571h-174l16 174h174zM1069 1434l-440 -768l-58 -666h-184l57 666l-299 768h193l217 -596l324 596h190z" />
<glyph unicode="&#x1e8f;" horiz-adv-x="948" d="M640 1161h-174l16 174h175zM944 1024l-393 -1114q-24 -68 -45 -110.5t-53 -82t-76.5 -57.5t-104.5 -18q-39 0 -114 12l12 149q58 -8 106 -8q55 0 91 92l43 113h-41l-230 1024h185l165 -846l273 846h182z" />
<glyph unicode="&#x1e90;" horiz-adv-x="892" d="M907 1571h-199l-106 172l-139 -172h-197l254 276h180zM889 1253l-621 -1101h504l-12 -152h-688l14 180l623 1102h-480l15 152h661z" />
<glyph unicode="&#x1e91;" horiz-adv-x="825" d="M828 1161h-198l-107 172l-139 -172h-197l254 277h180zM774 842l-498 -690h418l-12 -152h-610l12 164l504 708h-400l13 152h590z" />
<glyph unicode="&#x1e92;" horiz-adv-x="892" d="M477 -297h-174l16 174h174zM889 1253l-621 -1101h504l-12 -152h-688l14 180l623 1102h-480l15 152h661z" />
<glyph unicode="&#x1e93;" horiz-adv-x="825" d="M438 -297h-174l16 174h174zM774 842l-498 -690h418l-12 -152h-610l12 164l504 708h-400l13 152h590z" />
<glyph unicode="&#x1e94;" horiz-adv-x="892" d="M653 -266h-522l14 143h522zM889 1253l-621 -1101h504l-12 -152h-688l14 180l623 1102h-480l15 152h661z" />
<glyph unicode="&#x1e95;" horiz-adv-x="825" d="M614 -266h-522l14 143h522zM774 842l-498 -690h418l-12 -152h-610l12 164l504 708h-400l13 152h590z" />
<glyph unicode="&#x1e96;" horiz-adv-x="1036" d="M740 -266h-522l14 143h522zM317 0h-174l125 1434h174l-43 -502q92 106 244 106q153 0 216 -74t63 -221q0 -26 -4 -88l-56 -655h-174l55 655q7 70 7 78q0 76 -34 117t-118 41q-55 0 -98.5 -26t-69.5 -69.5t-40.5 -91t-18.5 -98.5z" />
<glyph unicode="&#x1e97;" horiz-adv-x="657" d="M664 1393h-174l14 163h174zM254 1393h-174l15 163h174zM651 870h-237l-52 -579q-4 -40 -4 -60q0 -38 21 -67t72 -29q63 0 137 19l-13 -144q-74 -22 -178 -22q-112 0 -163.5 61.5t-51.5 167.5q0 5 6 80l52 573h-134l13 154h133l22 246h175l-23 -246h238z" />
<glyph unicode="&#x1e98;" horiz-adv-x="1372" d="M977 1370q-8 -93 -64.5 -151t-150.5 -58q-77 0 -125.5 54t-48.5 133q0 101 57 166t154 65q82 0 131 -50.5t49 -133.5q0 -4 -1 -12.5t-1 -12.5zM859 1372v19q0 82 -70 82q-45 0 -64.5 -34t-19.5 -81q0 -86 68 -86q46 0 64 27t22 73zM1358 1024l-291 -1024h-268l-82 555 l-189 -555h-262l-116 1024h178l86 -893l245 709h175l108 -709l244 893h172z" />
<glyph unicode="&#x1e99;" horiz-adv-x="948" d="M765 1370q-8 -93 -64.5 -151t-150.5 -58q-77 0 -125.5 54t-48.5 133q0 101 57 166t154 65q82 0 131 -50.5t49 -133.5q0 -4 -1 -12.5t-1 -12.5zM647 1372v19q0 82 -70 82q-45 0 -64.5 -34t-19.5 -81q0 -86 68 -86q46 0 64 27t22 73zM944 1024l-393 -1114 q-24 -68 -45 -110.5t-53 -82t-76.5 -57.5t-104.5 -18q-39 0 -114 12l12 149q58 -8 106 -8q55 0 91 92l43 113h-41l-230 1024h185l165 -846l273 846h182z" />
<glyph unicode="&#x1ea0;" horiz-adv-x="1024" d="M552 -297h-174l17 174h174zM709 516l-105 782l-233 -782h338zM952 0h-178l-47 362h-403l-111 -362h-182l467 1434h235z" />
<glyph unicode="&#x1ea1;" horiz-adv-x="1019" d="M468 -311h-174l17 174h174zM152 467q28 302 143.5 436.5t347.5 134.5q53 0 131.5 -14t130.5 -31l-65 -714q0 -1 -1 -10.5t-2 -25.5t-1 -32q0 -78 79 -78l-10 -133h-39q-140 0 -176 127q-95 -141 -282 -141q-138 0 -200.5 91.5t-62.5 270.5q0 47 7 119zM453 133 q99 0 155 64t64 155l47 531q-54 8 -111 8q-284 0 -284 -557q0 -104 30 -152.5t99 -48.5z" />
<glyph unicode="&#x1ea4;" horiz-adv-x="1024" d="M738 1853h-176l237 277h224zM940 1495h-199l-110 131l-135 -131h-197l246 236h188zM709 516l-105 782l-233 -782h338zM952 0h-178l-47 362h-403l-111 -362h-182l467 1434h235z" />
<glyph unicode="&#x1ea5;" horiz-adv-x="1019" d="M777 1587h-176l237 277h223zM152 467q28 302 143.5 436.5t347.5 134.5q53 0 131.5 -14t130.5 -31l-65 -714q0 -1 -1 -10.5t-2 -25.5t-1 -32q0 -78 79 -78l-10 -133h-39q-140 0 -176 127q-95 -141 -282 -141q-138 0 -200.5 91.5t-62.5 270.5q0 47 7 119zM453 133 q99 0 155 64t64 155l47 531q-54 8 -111 8q-284 0 -284 -557q0 -104 30 -152.5t99 -48.5zM975 1188h-199l-106 172l-140 -172h-196l254 276h180z" />
<glyph unicode="&#x1ea6;" horiz-adv-x="1024" d="M728 1853h-156l-256 277h223zM940 1495h-199l-110 131l-135 -131h-197l246 236h188zM709 516l-105 782l-233 -782h338zM952 0h-178l-47 362h-403l-111 -362h-182l467 1434h235z" />
<glyph unicode="&#x1ea7;" horiz-adv-x="1019" d="M767 1587h-156l-256 277h223zM152 467q28 302 143.5 436.5t347.5 134.5q53 0 131.5 -14t130.5 -31l-65 -714q0 -1 -1 -10.5t-2 -25.5t-1 -32q0 -78 79 -78l-10 -133h-39q-140 0 -176 127q-95 -141 -282 -141q-138 0 -200.5 91.5t-62.5 270.5q0 47 7 119zM453 133 q99 0 155 64t64 155l47 531q-54 8 -111 8q-284 0 -284 -557q0 -104 30 -152.5t99 -48.5zM975 1188h-199l-106 172l-140 -172h-196l254 276h180z" />
<glyph unicode="&#x1eaa;" horiz-adv-x="1024" d="M363 1860l15 149q88 68 182 68q50 0 118.5 -40t106.5 -40q50 0 86 17t84 57l-12 -150q-76 -68 -182 -68q-43 0 -81 20t-73.5 40t-71.5 20q-84 0 -172 -73zM940 1495h-199l-110 131l-135 -131h-197l246 236h188zM709 516l-105 782l-233 -782h338zM952 0h-178l-47 362h-403 l-111 -362h-182l467 1434h235z" />
<glyph unicode="&#x1eab;" horiz-adv-x="1019" d="M402 1593l14 150q87 67 183 67q50 0 118.5 -39.5t106.5 -39.5q50 0 86 17t84 56l-12 -149q-76 -68 -183 -68q-43 0 -81 20t-73 40t-71 20q-83 0 -172 -74zM152 467q28 302 143.5 436.5t347.5 134.5q53 0 131.5 -14t130.5 -31l-65 -714q0 -1 -1 -10.5t-2 -25.5t-1 -32 q0 -78 79 -78l-10 -133h-39q-140 0 -176 127q-95 -141 -282 -141q-138 0 -200.5 91.5t-62.5 270.5q0 47 7 119zM453 133q99 0 155 64t64 155l47 531q-54 8 -111 8q-284 0 -284 -557q0 -104 30 -152.5t99 -48.5zM975 1188h-199l-106 172l-140 -172h-196l254 276h180z" />
<glyph unicode="&#x1eac;" horiz-adv-x="1024" d="M948 1571h-199l-106 172l-139 -172h-197l254 276h180zM552 -297h-174l17 174h174zM709 516l-105 782l-233 -782h338zM952 0h-178l-47 362h-403l-111 -362h-182l467 1434h235z" />
<glyph unicode="&#x1ead;" horiz-adv-x="1019" d="M974 1161h-198l-107 172l-139 -172h-197l254 277h181zM468 -311h-174l17 174h174zM152 467q28 302 143.5 436.5t347.5 134.5q53 0 131.5 -14t130.5 -31l-65 -714q0 -1 -1 -10.5t-2 -25.5t-1 -32q0 -78 79 -78l-10 -133h-39q-140 0 -176 127q-95 -141 -282 -141 q-138 0 -200.5 91.5t-62.5 270.5q0 47 7 119zM453 133q99 0 155 64t64 155l47 531q-54 8 -111 8q-284 0 -284 -557q0 -104 30 -152.5t99 -48.5z" />
<glyph unicode="&#x1eae;" horiz-adv-x="1024" d="M749 1960h-176l238 276h223zM775 1837h166q-11 -44 -20.5 -72t-33.5 -69t-54.5 -65t-83.5 -42t-121 -18q-71 0 -124 25t-82 66.5t-44 84.5t-18 90h168q0 -141 110 -141q64 0 94.5 37.5t42.5 103.5zM709 516l-105 782l-233 -782h338zM952 0h-178l-47 362h-403l-111 -362 h-182l467 1434h235z" />
<glyph unicode="&#x1eaf;" horiz-adv-x="1019" d="M776 1550h-176l237 277h224zM802 1427h166q-11 -44 -21 -72.5t-33.5 -69t-54.5 -64.5t-84 -42t-121 -18q-71 0 -124 25t-82 66.5t-44 84.5t-18 90h168q0 -141 111 -141q64 0 94.5 37.5t42.5 103.5zM152 467q28 302 143.5 436.5t347.5 134.5q53 0 131.5 -14t130.5 -31 l-65 -714q0 -1 -1 -10.5t-2 -25.5t-1 -32q0 -78 79 -78l-10 -133h-39q-140 0 -176 127q-95 -141 -282 -141q-138 0 -200.5 91.5t-62.5 270.5q0 47 7 119zM453 133q99 0 155 64t64 155l47 531q-54 8 -111 8q-284 0 -284 -557q0 -104 30 -152.5t99 -48.5z" />
<glyph unicode="&#x1eb0;" horiz-adv-x="1024" d="M739 1960h-155l-256 276h223zM775 1837h166q-11 -44 -20.5 -72t-33.5 -69t-54.5 -65t-83.5 -42t-121 -18q-71 0 -124 25t-82 66.5t-44 84.5t-18 90h168q0 -141 110 -141q64 0 94.5 37.5t42.5 103.5zM709 516l-105 782l-233 -782h338zM952 0h-178l-47 362h-403l-111 -362 h-182l467 1434h235z" />
<glyph unicode="&#x1eb1;" horiz-adv-x="1019" d="M766 1550h-156l-256 277h223zM802 1427h166q-11 -44 -21 -72.5t-33.5 -69t-54.5 -64.5t-84 -42t-121 -18q-71 0 -124 25t-82 66.5t-44 84.5t-18 90h168q0 -141 111 -141q64 0 94.5 37.5t42.5 103.5zM152 467q28 302 143.5 436.5t347.5 134.5q53 0 131.5 -14t130.5 -31 l-65 -714q0 -1 -1 -10.5t-2 -25.5t-1 -32q0 -78 79 -78l-10 -133h-39q-140 0 -176 127q-95 -141 -282 -141q-138 0 -200.5 91.5t-62.5 270.5q0 47 7 119zM453 133q99 0 155 64t64 155l47 531q-54 8 -111 8q-284 0 -284 -557q0 -104 30 -152.5t99 -48.5z" />
<glyph unicode="&#x1eb4;" horiz-adv-x="1024" d="M375 1966l14 150q87 67 182 67q50 0 119 -40t107 -40q50 0 86 17t84 57l-13 -149q-76 -68 -182 -68q-43 0 -81 20t-73 40t-71 20q-83 0 -172 -74zM775 1837h166q-11 -44 -20.5 -72t-33.5 -69t-54.5 -65t-83.5 -42t-121 -18q-71 0 -124 25t-82 66.5t-44 84.5t-18 90h168 q0 -141 110 -141q64 0 94.5 37.5t42.5 103.5zM709 516l-105 782l-233 -782h338zM952 0h-178l-47 362h-403l-111 -362h-182l467 1434h235z" />
<glyph unicode="&#x1eb5;" horiz-adv-x="1019" d="M401 1556l15 150q88 68 182 68q50 0 118.5 -40t106.5 -40q50 0 86 17t84 56l-12 -149q-76 -68 -182 -68q-43 0 -81 20t-73.5 40t-71.5 20q-83 0 -172 -74zM802 1427h166q-11 -44 -21 -72.5t-33.5 -69t-54.5 -64.5t-84 -42t-121 -18q-71 0 -124 25t-82 66.5t-44 84.5 t-18 90h168q0 -141 111 -141q64 0 94.5 37.5t42.5 103.5zM152 467q28 302 143.5 436.5t347.5 134.5q53 0 131.5 -14t130.5 -31l-65 -714q0 -1 -1 -10.5t-2 -25.5t-1 -32q0 -78 79 -78l-10 -133h-39q-140 0 -176 127q-95 -141 -282 -141q-138 0 -200.5 91.5t-62.5 270.5 q0 47 7 119zM453 133q99 0 155 64t64 155l47 531q-54 8 -111 8q-284 0 -284 -557q0 -104 30 -152.5t99 -48.5z" />
<glyph unicode="&#x1eb6;" horiz-adv-x="1024" d="M775 1837h166q-11 -44 -20.5 -72t-33.5 -69t-54.5 -65t-83.5 -42t-121 -18q-71 0 -124 25t-82 66.5t-44 84.5t-18 90h168q0 -141 110 -141q64 0 94.5 37.5t42.5 103.5zM552 -297h-174l17 174h174zM709 516l-105 782l-233 -782h338zM952 0h-178l-47 362h-403l-111 -362 h-182l467 1434h235z" />
<glyph unicode="&#x1eb7;" horiz-adv-x="1019" d="M802 1427h166q-11 -44 -21 -72.5t-33.5 -69t-54.5 -64.5t-84 -42t-121 -18q-71 0 -124 25t-82 66.5t-44 84.5t-18 90h168q0 -141 111 -141q64 0 94.5 37.5t42.5 103.5zM468 -311h-174l17 174h174zM152 467q28 302 143.5 436.5t347.5 134.5q53 0 131.5 -14t130.5 -31 l-65 -714q0 -1 -1 -10.5t-2 -25.5t-1 -32q0 -78 79 -78l-10 -133h-39q-140 0 -176 127q-95 -141 -282 -141q-138 0 -200.5 91.5t-62.5 270.5q0 47 7 119zM453 133q99 0 155 64t64 155l47 531q-54 8 -111 8q-284 0 -284 -557q0 -104 30 -152.5t99 -48.5z" />
<glyph unicode="&#x1eb8;" horiz-adv-x="958" d="M550 -297h-174l17 174h174zM825 0h-671l125 1434h671l-14 -150h-494l-41 -469h443l-13 -149h-442l-45 -516h494z" />
<glyph unicode="&#x1eb9;" horiz-adv-x="933" d="M542 -311h-174l16 174h175zM872 758q0 -175 -104.5 -257.5t-294.5 -82.5q-75 0 -151 8v-74q0 -54 8.5 -94.5t22.5 -64t34.5 -37.5t40.5 -18.5t45 -4.5q38 0 72.5 2t67 7t51.5 8t50 10t38 8l-15 -148q-50 -14 -125.5 -24t-130.5 -10q-63 0 -109.5 8.5t-90.5 32.5t-71 65.5 t-43.5 110.5t-16.5 164q0 182 27.5 312.5t81.5 208.5t128.5 114t173.5 36q83 0 145.5 -23.5t97.5 -64t51.5 -88.5t16.5 -104zM559 893q-96 0 -152 -74t-75 -252q61 -6 110 -6q143 0 205 44t62 145q0 67 -32 105t-118 38z" />
<glyph unicode="&#x1ebc;" horiz-adv-x="958" d="M340 1577l14 149q88 68 182 68q50 0 119 -40t107 -40q50 0 86 17t84 57l-13 -150q-75 -67 -182 -67q-43 0 -81 20t-73 40t-71 20q-83 0 -172 -74zM825 0h-671l125 1434h671l-14 -150h-494l-41 -469h443l-13 -149h-442l-45 -516h494z" />
<glyph unicode="&#x1ebd;" horiz-adv-x="933" d="M285 1167l15 150q87 67 182 67q50 0 118.5 -39.5t106.5 -39.5q50 0 86 17t84 56l-12 -149q-76 -68 -182 -68q-43 0 -81 20t-73.5 40t-71.5 20q-83 0 -172 -74zM872 758q0 -175 -104.5 -257.5t-294.5 -82.5q-75 0 -151 8v-74q0 -54 8.5 -94.5t22.5 -64t34.5 -37.5 t40.5 -18.5t45 -4.5q38 0 72.5 2t67 7t51.5 8t50 10t38 8l-15 -148q-50 -14 -125.5 -24t-130.5 -10q-63 0 -109.5 8.5t-90.5 32.5t-71 65.5t-43.5 110.5t-16.5 164q0 182 27.5 312.5t81.5 208.5t128.5 114t173.5 36q83 0 145.5 -23.5t97.5 -64t51.5 -88.5t16.5 -104z M559 893q-96 0 -152 -74t-75 -252q61 -6 110 -6q143 0 205 44t62 145q0 67 -32 105t-118 38z" />
<glyph unicode="&#x1ebe;" horiz-adv-x="958" d="M738 1853h-176l237 277h224zM940 1495h-199l-110 131l-135 -131h-197l246 236h188zM825 0h-671l125 1434h671l-14 -150h-494l-41 -469h443l-13 -149h-442l-45 -516h494z" />
<glyph unicode="&#x1ebf;" horiz-adv-x="933" d="M711 1587h-176l238 277h223zM872 758q0 -175 -104.5 -257.5t-294.5 -82.5q-75 0 -151 8v-74q0 -54 8.5 -94.5t22.5 -64t34.5 -37.5t40.5 -18.5t45 -4.5q38 0 72.5 2t67 7t51.5 8t50 10t38 8l-15 -148q-50 -14 -125.5 -24t-130.5 -10q-63 0 -109.5 8.5t-90.5 32.5 t-71 65.5t-43.5 110.5t-16.5 164q0 182 27.5 312.5t81.5 208.5t128.5 114t173.5 36q83 0 145.5 -23.5t97.5 -64t51.5 -88.5t16.5 -104zM559 893q-96 0 -152 -74t-75 -252q61 -6 110 -6q143 0 205 44t62 145q0 67 -32 105t-118 38zM909 1188h-198l-107 172l-139 -172h-197 l254 276h180z" />
<glyph unicode="&#x1ec0;" horiz-adv-x="958" d="M728 1853h-156l-256 277h223zM940 1495h-199l-110 131l-135 -131h-197l246 236h188zM825 0h-671l125 1434h671l-14 -150h-494l-41 -469h443l-13 -149h-442l-45 -516h494z" />
<glyph unicode="&#x1ec1;" horiz-adv-x="933" d="M701 1587h-156l-256 277h224zM872 758q0 -175 -104.5 -257.5t-294.5 -82.5q-75 0 -151 8v-74q0 -54 8.5 -94.5t22.5 -64t34.5 -37.5t40.5 -18.5t45 -4.5q38 0 72.5 2t67 7t51.5 8t50 10t38 8l-15 -148q-50 -14 -125.5 -24t-130.5 -10q-63 0 -109.5 8.5t-90.5 32.5 t-71 65.5t-43.5 110.5t-16.5 164q0 182 27.5 312.5t81.5 208.5t128.5 114t173.5 36q83 0 145.5 -23.5t97.5 -64t51.5 -88.5t16.5 -104zM559 893q-96 0 -152 -74t-75 -252q61 -6 110 -6q143 0 205 44t62 145q0 67 -32 105t-118 38zM909 1188h-198l-107 172l-139 -172h-197 l254 276h180z" />
<glyph unicode="&#x1ec4;" horiz-adv-x="958" d="M363 1860l15 149q88 68 182 68q50 0 118.5 -40t106.5 -40q50 0 86 17t84 57l-12 -150q-76 -68 -182 -68q-43 0 -81 20t-73.5 40t-71.5 20q-84 0 -172 -73zM940 1495h-199l-110 131l-135 -131h-197l246 236h188zM825 0h-671l125 1434h671l-14 -150h-494l-41 -469h443 l-13 -149h-442l-45 -516h494z" />
<glyph unicode="&#x1ec5;" horiz-adv-x="933" d="M337 1593l14 150q87 67 182 67q50 0 118.5 -39.5t106.5 -39.5q50 0 86 17t84 56l-12 -149q-76 -68 -182 -68q-43 0 -81 20t-73 40t-71 20q-83 0 -172 -74zM872 758q0 -175 -104.5 -257.5t-294.5 -82.5q-75 0 -151 8v-74q0 -54 8.5 -94.5t22.5 -64t34.5 -37.5t40.5 -18.5 t45 -4.5q38 0 72.5 2t67 7t51.5 8t50 10t38 8l-15 -148q-50 -14 -125.5 -24t-130.5 -10q-63 0 -109.5 8.5t-90.5 32.5t-71 65.5t-43.5 110.5t-16.5 164q0 182 27.5 312.5t81.5 208.5t128.5 114t173.5 36q83 0 145.5 -23.5t97.5 -64t51.5 -88.5t16.5 -104zM559 893 q-96 0 -152 -74t-75 -252q61 -6 110 -6q143 0 205 44t62 145q0 67 -32 105t-118 38zM909 1188h-198l-107 172l-139 -172h-197l254 276h180z" />
<glyph unicode="&#x1ec6;" horiz-adv-x="958" d="M947 1571h-199l-106 172l-139 -172h-197l254 276h180zM550 -297h-174l17 174h174zM825 0h-671l125 1434h671l-14 -150h-494l-41 -469h443l-13 -149h-442l-45 -516h494z" />
<glyph unicode="&#x1ec7;" horiz-adv-x="933" d="M892 1161h-198l-107 172l-139 -172h-197l254 277h181zM542 -311h-174l16 174h175zM872 758q0 -175 -104.5 -257.5t-294.5 -82.5q-75 0 -151 8v-74q0 -54 8.5 -94.5t22.5 -64t34.5 -37.5t40.5 -18.5t45 -4.5q38 0 72.5 2t67 7t51.5 8t50 10t38 8l-15 -148 q-50 -14 -125.5 -24t-130.5 -10q-63 0 -109.5 8.5t-90.5 32.5t-71 65.5t-43.5 110.5t-16.5 164q0 182 27.5 312.5t81.5 208.5t128.5 114t173.5 36q83 0 145.5 -23.5t97.5 -64t51.5 -88.5t16.5 -104zM559 893q-96 0 -152 -74t-75 -252q61 -6 110 -6q143 0 205 44t62 145 q0 67 -32 105t-118 38z" />
<glyph unicode="&#x1eca;" horiz-adv-x="649" d="M365 -297h-174l16 174h174zM537 0h-465l12 150h143l99 1134h-144l15 150h465l-15 -150h-143l-98 -1134h143z" />
<glyph unicode="&#x1ecb;" horiz-adv-x="501" d="M291 -297h-174l17 174h174zM436 1249h-194l16 185h195zM317 0h-174l88 1024h175z" />
<glyph unicode="&#x1ecc;" horiz-adv-x="1122" d="M599 -311h-174l17 174h174zM848 723q14 168 14 246q0 184 -48.5 256.5t-160.5 72.5q-94 0 -150 -50t-91 -174t-56 -351q-12 -210 -12 -236q0 -191 48.5 -271.5t158.5 -80.5q94 0 151.5 56t92 182.5t53.5 349.5zM1032 733q-14 -159 -35 -271.5t-57 -207t-89 -151 t-130.5 -87t-181.5 -30.5q-206 0 -289.5 132t-83.5 417q0 53 10 198q13 152 33 260t56 198.5t89 144.5t130.5 83t181.5 29q204 0 290 -121.5t86 -382.5q0 -84 -10 -211z" />
<glyph unicode="&#x1ecd;" horiz-adv-x="1044" d="M561 -311h-175l17 174h174zM940 647q0 -343 -104.5 -502t-335.5 -159q-85 0 -146.5 19.5t-108.5 66t-70 128.5t-23 201q0 331 104.5 484t335.5 153q348 0 348 -391zM756 502q6 80 6 141q0 138 -41 195t-141 57q-122 0 -174.5 -86t-71.5 -307q-6 -61 -6 -113 q0 -138 43.5 -199t140.5 -61q115 0 171 86t73 287z" />
<glyph unicode="&#x1ed0;" horiz-adv-x="1122" d="M789 1853h-176l238 277h223zM991 1495h-198l-111 131l-135 -131h-197l246 236h188zM848 723q14 168 14 246q0 184 -48.5 256.5t-160.5 72.5q-94 0 -150 -50t-91 -174t-56 -351q-12 -210 -12 -236q0 -191 48.5 -271.5t158.5 -80.5q94 0 151.5 56t92 182.5t53.5 349.5z M1032 733q-14 -159 -35 -271.5t-57 -207t-89 -151t-130.5 -87t-181.5 -30.5q-206 0 -289.5 132t-83.5 417q0 53 10 198q13 152 33 260t56 198.5t89 144.5t130.5 83t181.5 29q204 0 290 -121.5t86 -382.5q0 -84 -10 -211z" />
<glyph unicode="&#x1ed1;" horiz-adv-x="1044" d="M728 1587h-177l238 277h223zM940 647q0 -343 -104.5 -502t-335.5 -159q-85 0 -146.5 19.5t-108.5 66t-70 128.5t-23 201q0 331 104.5 484t335.5 153q348 0 348 -391zM756 502q6 80 6 141q0 138 -41 195t-141 57q-122 0 -174.5 -86t-71.5 -307q-6 -61 -6 -113 q0 -138 43.5 -199t140.5 -61q115 0 171 86t73 287zM926 1188h-199l-106 172l-140 -172h-196l254 276h180z" />
<glyph unicode="&#x1ed2;" horiz-adv-x="1122" d="M779 1853h-156l-256 277h223zM991 1495h-198l-111 131l-135 -131h-197l246 236h188zM848 723q14 168 14 246q0 184 -48.5 256.5t-160.5 72.5q-94 0 -150 -50t-91 -174t-56 -351q-12 -210 -12 -236q0 -191 48.5 -271.5t158.5 -80.5q94 0 151.5 56t92 182.5t53.5 349.5z M1032 733q-14 -159 -35 -271.5t-57 -207t-89 -151t-130.5 -87t-181.5 -30.5q-206 0 -289.5 132t-83.5 417q0 53 10 198q13 152 33 260t56 198.5t89 144.5t130.5 83t181.5 29q204 0 290 -121.5t86 -382.5q0 -84 -10 -211z" />
<glyph unicode="&#x1ed3;" horiz-adv-x="1044" d="M717 1587h-155l-256 277h223zM940 647q0 -343 -104.5 -502t-335.5 -159q-85 0 -146.5 19.5t-108.5 66t-70 128.5t-23 201q0 331 104.5 484t335.5 153q348 0 348 -391zM756 502q6 80 6 141q0 138 -41 195t-141 57q-122 0 -174.5 -86t-71.5 -307q-6 -61 -6 -113 q0 -138 43.5 -199t140.5 -61q115 0 171 86t73 287zM926 1188h-199l-106 172l-140 -172h-196l254 276h180z" />
<glyph unicode="&#x1ed6;" horiz-adv-x="1122" d="M414 1860l15 149q88 68 182 68q50 0 118.5 -40t106.5 -40q50 0 86 17t84 57l-12 -150q-76 -68 -182 -68q-43 0 -81 20t-73.5 40t-71.5 20q-84 0 -172 -73zM991 1495h-198l-111 131l-135 -131h-197l246 236h188zM848 723q14 168 14 246q0 184 -48.5 256.5t-160.5 72.5 q-94 0 -150 -50t-91 -174t-56 -351q-12 -210 -12 -236q0 -191 48.5 -271.5t158.5 -80.5q94 0 151.5 56t92 182.5t53.5 349.5zM1032 733q-14 -159 -35 -271.5t-57 -207t-89 -151t-130.5 -87t-181.5 -30.5q-206 0 -289.5 132t-83.5 417q0 53 10 198q13 152 33 260t56 198.5 t89 144.5t130.5 83t181.5 29q204 0 290 -121.5t86 -382.5q0 -84 -10 -211z" />
<glyph unicode="&#x1ed7;" horiz-adv-x="1044" d="M353 1593l14 150q87 67 183 67q50 0 118.5 -39.5t106.5 -39.5q50 0 86 17t84 56l-12 -149q-76 -68 -183 -68q-43 0 -81 20t-73 40t-71 20q-83 0 -172 -74zM940 647q0 -343 -104.5 -502t-335.5 -159q-85 0 -146.5 19.5t-108.5 66t-70 128.5t-23 201q0 331 104.5 484 t335.5 153q348 0 348 -391zM756 502q6 80 6 141q0 138 -41 195t-141 57q-122 0 -174.5 -86t-71.5 -307q-6 -61 -6 -113q0 -138 43.5 -199t140.5 -61q115 0 171 86t73 287zM926 1188h-199l-106 172l-140 -172h-196l254 276h180z" />
<glyph unicode="&#x1ed8;" horiz-adv-x="1122" d="M997 1571h-199l-106 172l-139 -172h-197l254 276h180zM599 -311h-174l17 174h174zM848 723q14 168 14 246q0 184 -48.5 256.5t-160.5 72.5q-94 0 -150 -50t-91 -174t-56 -351q-12 -210 -12 -236q0 -191 48.5 -271.5t158.5 -80.5q94 0 151.5 56t92 182.5t53.5 349.5z M1032 733q-14 -159 -35 -271.5t-57 -207t-89 -151t-130.5 -87t-181.5 -30.5q-206 0 -289.5 132t-83.5 417q0 53 10 198q13 152 33 260t56 198.5t89 144.5t130.5 83t181.5 29q204 0 290 -121.5t86 -382.5q0 -84 -10 -211z" />
<glyph unicode="&#x1ed9;" horiz-adv-x="1044" d="M923 1161h-198l-107 172l-139 -172h-197l254 277h180zM561 -311h-175l17 174h174zM940 647q0 -343 -104.5 -502t-335.5 -159q-85 0 -146.5 19.5t-108.5 66t-70 128.5t-23 201q0 331 104.5 484t335.5 153q348 0 348 -391zM756 502q6 80 6 141q0 138 -41 195t-141 57 q-122 0 -174.5 -86t-71.5 -307q-6 -61 -6 -113q0 -138 43.5 -199t140.5 -61q115 0 171 86t73 287z" />
<glyph unicode="&#x1eda;" horiz-adv-x="1355" d="M848 723q14 168 14 246q0 184 -48.5 256.5t-160.5 72.5q-94 0 -150 -50t-91 -174t-56 -351q-12 -210 -12 -236q0 -191 48.5 -271.5t158.5 -80.5q94 0 151.5 56t92 182.5t53.5 349.5zM1032 733q-14 -159 -35 -271.5t-57 -207t-89 -151t-130.5 -87t-181.5 -30.5 q-206 0 -289.5 132t-83.5 417q0 53 10 198q13 152 33 260t56 198.5t89 144.5t130.5 83t181.5 29q204 0 290 -121.5t86 -382.5q0 -84 -10 -211zM1405 1243l-174 -287h-139l108 287l17 205h204zM764 1571h-176l237 276h224z" />
<glyph unicode="&#x1edb;" horiz-adv-x="1249" d="M940 647q0 -343 -104.5 -502t-335.5 -159q-85 0 -146.5 19.5t-108.5 66t-70 128.5t-23 201q0 331 104.5 484t335.5 153q348 0 348 -391zM756 502q6 80 6 141q0 138 -41 195t-141 57q-122 0 -174.5 -86t-71.5 -307q-6 -61 -6 -113q0 -138 43.5 -199t140.5 -61 q115 0 171 86t73 287zM1294 834l-174 -287h-139l109 287l16 204h205zM707 1161h-177l238 277h223z" />
<glyph unicode="&#x1edc;" horiz-adv-x="1355" d="M848 723q14 168 14 246q0 184 -48.5 256.5t-160.5 72.5q-94 0 -150 -50t-91 -174t-56 -351q-12 -210 -12 -236q0 -191 48.5 -271.5t158.5 -80.5q94 0 151.5 56t92 182.5t53.5 349.5zM1032 733q-14 -159 -35 -271.5t-57 -207t-89 -151t-130.5 -87t-181.5 -30.5 q-206 0 -289.5 132t-83.5 417q0 53 10 198q13 152 33 260t56 198.5t89 144.5t130.5 83t181.5 29q204 0 290 -121.5t86 -382.5q0 -84 -10 -211zM1405 1243l-174 -287h-139l108 287l17 205h204zM758 1571h-156l-256 276h223z" />
<glyph unicode="&#x1edd;" horiz-adv-x="1249" d="M940 647q0 -343 -104.5 -502t-335.5 -159q-85 0 -146.5 19.5t-108.5 66t-70 128.5t-23 201q0 331 104.5 484t335.5 153q348 0 348 -391zM756 502q6 80 6 141q0 138 -41 195t-141 57q-122 0 -174.5 -86t-71.5 -307q-6 -61 -6 -113q0 -138 43.5 -199t140.5 -61 q115 0 171 86t73 287zM1294 834l-174 -287h-139l109 287l16 204h205zM684 1161h-156l-256 277h224z" />
<glyph unicode="&#x1ee0;" horiz-adv-x="1355" d="M848 723q14 168 14 246q0 184 -48.5 256.5t-160.5 72.5q-94 0 -150 -50t-91 -174t-56 -351q-12 -210 -12 -236q0 -191 48.5 -271.5t158.5 -80.5q94 0 151.5 56t92 182.5t53.5 349.5zM1032 733q-14 -159 -35 -271.5t-57 -207t-89 -151t-130.5 -87t-181.5 -30.5 q-206 0 -289.5 132t-83.5 417q0 53 10 198q13 152 33 260t56 198.5t89 144.5t130.5 83t181.5 29q204 0 290 -121.5t86 -382.5q0 -84 -10 -211zM1405 1243l-174 -287h-139l108 287l17 205h204zM438 1577l15 149q88 68 182 68q50 0 118.5 -40t106.5 -40q50 0 86 17t84 57 l-12 -150q-75 -67 -182 -67q-43 0 -81 20t-73.5 40t-71.5 20q-83 0 -172 -74z" />
<glyph unicode="&#x1ee1;" horiz-adv-x="1249" d="M940 647q0 -343 -104.5 -502t-335.5 -159q-85 0 -146.5 19.5t-108.5 66t-70 128.5t-23 201q0 331 104.5 484t335.5 153q348 0 348 -391zM756 502q6 80 6 141q0 138 -41 195t-141 57q-122 0 -174.5 -86t-71.5 -307q-6 -61 -6 -113q0 -138 43.5 -199t140.5 -61 q115 0 171 86t73 287zM1294 834l-174 -287h-139l109 287l16 204h205zM348 1167l14 150q87 67 183 67q50 0 118.5 -39.5t106.5 -39.5q50 0 86 17t84 56l-12 -149q-76 -68 -183 -68q-43 0 -81 20t-73 40t-71 20q-83 0 -172 -74z" />
<glyph unicode="&#x1ee2;" horiz-adv-x="1355" d="M599 -311h-174l17 174h174zM848 723q14 168 14 246q0 184 -48.5 256.5t-160.5 72.5q-94 0 -150 -50t-91 -174t-56 -351q-12 -210 -12 -236q0 -191 48.5 -271.5t158.5 -80.5q94 0 151.5 56t92 182.5t53.5 349.5zM1032 733q-14 -159 -35 -271.5t-57 -207t-89 -151 t-130.5 -87t-181.5 -30.5q-206 0 -289.5 132t-83.5 417q0 53 10 198q13 152 33 260t56 198.5t89 144.5t130.5 83t181.5 29q204 0 290 -121.5t86 -382.5q0 -84 -10 -211zM1405 1243l-174 -287h-139l108 287l17 205h204z" />
<glyph unicode="&#x1ee3;" horiz-adv-x="1249" d="M561 -311h-175l17 174h174zM940 647q0 -343 -104.5 -502t-335.5 -159q-85 0 -146.5 19.5t-108.5 66t-70 128.5t-23 201q0 331 104.5 484t335.5 153q348 0 348 -391zM756 502q6 80 6 141q0 138 -41 195t-141 57q-122 0 -174.5 -86t-71.5 -307q-6 -61 -6 -113 q0 -138 43.5 -199t140.5 -61q115 0 171 86t73 287zM1294 834l-174 -287h-139l109 287l16 204h205z" />
<glyph unicode="&#x1ee4;" horiz-adv-x="1095" d="M587 -311h-174l16 174h175zM1036 1434l-92 -1055q-18 -203 -123.5 -298t-294.5 -95q-160 0 -256 84t-96 254q0 39 4 75l90 1035h178l-92 -1051q-4 -66 -4 -72q0 -89 49.5 -132.5t139.5 -43.5q96 0 155 50.5t68 154.5l96 1094h178z" />
<glyph unicode="&#x1ee5;" d="M485 -311h-174l16 174h174zM221 1024h174l-57 -676q-4 -58 -4 -80q0 -67 27.5 -101t103.5 -34q57 0 100 28t67 75.5t37 95.5t17 100l49 592h174l-88 -1024h-143l-4 109q-89 -123 -250 -123q-148 0 -205 69.5t-57 210.5q0 29 4 103z" />
<glyph unicode="&#x1ee8;" horiz-adv-x="1296" d="M1370 1243l-174 -287h-139l108 287l16 205h205zM1036 1434l-92 -1055q-18 -203 -123.5 -298t-294.5 -95q-160 0 -256 84t-96 254q0 39 4 75l90 1035h178l-92 -1051q-4 -66 -4 -72q0 -89 49.5 -132.5t139.5 -43.5q96 0 155 50.5t68 154.5l96 1094h178zM776 1571h-176 l238 276h223z" />
<glyph unicode="&#x1ee9;" horiz-adv-x="1157" d="M1243 834l-174 -287h-139l108 287l17 204h204zM221 1024h174l-57 -676q-4 -58 -4 -80q0 -67 27.5 -101t103.5 -34q57 0 100 28t67 75.5t37 95.5t17 100l49 592h174l-88 -1024h-143l-4 109q-89 -123 -250 -123q-148 0 -205 69.5t-57 210.5q0 29 4 103zM690 1161h-176 l238 277h223z" />
<glyph unicode="&#x1eea;" horiz-adv-x="1292" d="M1370 1243l-174 -287h-139l108 287l16 205h205zM1036 1434l-92 -1055q-18 -203 -123.5 -298t-294.5 -95q-160 0 -256 84t-96 254q0 39 4 75l90 1035h178l-92 -1051q-4 -66 -4 -72q0 -89 49.5 -132.5t139.5 -43.5q96 0 155 50.5t68 154.5l96 1094h178zM762 1571h-156 l-256 276h223z" />
<glyph unicode="&#x1eeb;" horiz-adv-x="1153" d="M1243 834l-174 -287h-139l108 287l17 204h204zM221 1024h174l-57 -676q-4 -58 -4 -80q0 -67 27.5 -101t103.5 -34q57 0 100 28t67 75.5t37 95.5t17 100l49 592h174l-88 -1024h-143l-4 109q-89 -123 -250 -123q-148 0 -205 69.5t-57 210.5q0 29 4 103zM659 1161h-155 l-256 277h223z" />
<glyph unicode="&#x1eee;" horiz-adv-x="1292" d="M1370 1243l-174 -287h-139l108 287l16 205h205zM1036 1434l-92 -1055q-18 -203 -123.5 -298t-294.5 -95q-160 0 -256 84t-96 254q0 39 4 75l90 1035h178l-92 -1051q-4 -66 -4 -72q0 -89 49.5 -132.5t139.5 -43.5q96 0 155 50.5t68 154.5l96 1094h178zM393 1577l15 149 q88 68 182 68q50 0 118.5 -40t106.5 -40q50 0 86 17t84 57l-12 -150q-75 -67 -182 -67q-43 0 -81 20t-73.5 40t-71.5 20q-83 0 -172 -74z" />
<glyph unicode="&#x1eef;" horiz-adv-x="1181" d="M1243 834l-174 -287h-139l108 287l17 204h204zM221 1024h174l-57 -676q-4 -58 -4 -80q0 -67 27.5 -101t103.5 -34q57 0 100 28t67 75.5t37 95.5t17 100l49 592h174l-88 -1024h-143l-4 109q-89 -123 -250 -123q-148 0 -205 69.5t-57 210.5q0 29 4 103zM315 1167l15 150 q87 67 182 67q50 0 118.5 -39.5t106.5 -39.5q50 0 86 17t84 56l-12 -149q-76 -68 -182 -68q-43 0 -81 20t-73.5 40t-71.5 20q-83 0 -172 -74z" />
<glyph unicode="&#x1ef0;" horiz-adv-x="1095" d="M587 -311h-174l16 174h175zM1370 1243l-174 -287h-139l108 287l16 205h205zM1036 1434l-92 -1055q-18 -203 -123.5 -298t-294.5 -95q-160 0 -256 84t-96 254q0 39 4 75l90 1035h178l-92 -1051q-4 -66 -4 -72q0 -89 49.5 -132.5t139.5 -43.5q96 0 155 50.5t68 154.5 l96 1094h178z" />
<glyph unicode="&#x1ef1;" d="M485 -311h-174l16 174h174zM1243 834l-174 -287h-139l108 287l17 204h204zM221 1024h174l-57 -676q-4 -58 -4 -80q0 -67 27.5 -101t103.5 -34q57 0 100 28t67 75.5t37 95.5t17 100l49 592h174l-88 -1024h-143l-4 109q-89 -123 -250 -123q-148 0 -205 69.5t-57 210.5 q0 29 4 103z" />
<glyph unicode="&#x1ef2;" d="M697 1571h-156l-256 276h224zM1069 1434l-440 -768l-58 -666h-184l57 666l-299 768h193l217 -596l324 596h190z" />
<glyph unicode="&#x1ef3;" horiz-adv-x="948" d="M632 1161h-156l-256 277h223zM944 1024l-393 -1114q-24 -68 -45 -110.5t-53 -82t-76.5 -57.5t-104.5 -18q-39 0 -114 12l12 149q58 -8 106 -8q55 0 91 92l43 113h-41l-230 1024h185l165 -846l273 846h182z" />
<glyph unicode="&#x1ef4;" d="M540 -297h-174l16 174h174zM1069 1434l-440 -768l-58 -666h-184l57 666l-299 768h193l217 -596l324 596h190z" />
<glyph unicode="&#x1ef5;" horiz-adv-x="948" d="M333 -655h-174l17 174h174zM944 1024l-393 -1114q-24 -68 -45 -110.5t-53 -82t-76.5 -57.5t-104.5 -18q-39 0 -114 12l12 149q58 -8 106 -8q55 0 91 92l43 113h-41l-230 1024h185l165 -846l273 846h182z" />
<glyph unicode="&#x1ef8;" d="M333 1577l14 149q88 68 182 68q50 0 119 -40t107 -40q50 0 86 17t84 57l-13 -150q-75 -67 -182 -67q-43 0 -81 20t-73 40t-71 20q-83 0 -172 -74zM1069 1434l-440 -768l-58 -666h-184l57 666l-299 768h193l217 -596l324 596h190z" />
<glyph unicode="&#x1ef9;" horiz-adv-x="948" d="M267 1167l15 150q87 67 182 67q50 0 118.5 -39.5t106.5 -39.5q50 0 86 17t84 56l-12 -149q-76 -68 -183 -68q-43 0 -81 20t-73 40t-71 20q-83 0 -172 -74zM944 1024l-393 -1114q-24 -68 -45 -110.5t-53 -82t-76.5 -57.5t-104.5 -18q-39 0 -114 12l12 149q58 -8 106 -8 q55 0 91 92l43 113h-41l-230 1024h185l165 -846l273 846h182z" />
<glyph unicode="&#x2013;" horiz-adv-x="1126" d="M981 563h-778l12 154h778z" />
<glyph unicode="&#x2014;" horiz-adv-x="1239" d="M1135 563h-973l12 154h973z" />
<glyph unicode="&#x2018;" horiz-adv-x="419" d="M127 1110l152 322h133l-90 -322l-17 -184h-194z" />
<glyph unicode="&#x2019;" horiz-adv-x="419" d="M395 1249l-151 -321h-133l90 321l16 185h195z" />
<glyph unicode="&#x201a;" horiz-adv-x="419" d="M287 0l-152 -322h-133l90 322l14 184h195z" />
<glyph unicode="&#x201c;" horiz-adv-x="737" d="M127 1110l152 322h133l-90 -322l-17 -184h-194zM444 1110l152 322h133l-90 -322l-16 -184h-195z" />
<glyph unicode="&#x201d;" horiz-adv-x="737" d="M713 1249l-152 -321h-133l90 321l17 185h194zM395 1249l-151 -321h-133l90 321l16 185h195z" />
<glyph unicode="&#x201e;" horiz-adv-x="737" d="M604 0l-151 -322h-134l91 322l14 184h194zM287 0l-152 -322h-133l90 322l14 184h195z" />
<glyph unicode="&#x2020;" horiz-adv-x="923" d="M524 0h-164l76 870h-289l13 154h289l36 410h164l-37 -410h287l-12 -154h-287z" />
<glyph unicode="&#x2021;" horiz-adv-x="923" d="M524 0h-164l37 430h-288l12 154h291l24 286h-289l13 154h289l36 410h164l-37 -410h287l-12 -154h-287l-25 -286h285l-12 -154h-287z" />
<glyph unicode="&#x2022;" horiz-adv-x="593" d="M471 481h-307l29 318h307z" />
<glyph unicode="&#x2026;" horiz-adv-x="1372" d="M317 0h-204l16 205h205zM768 0h-205l17 205h204zM1219 0h-205l16 205h205z" />
<glyph unicode="&#x2030;" horiz-adv-x="2412" d="M662 1016q6 62 6 112q0 105 -28 152t-91 47q-87 0 -129.5 -102t-42.5 -328q0 -102 27 -147t90 -45q77 0 115 72t53 239zM1313 1434l-627 -1434h-160l627 1434h160zM1454 418q6 61 6 112q0 105 -28 152t-91 47q-87 0 -129.5 -102t-42.5 -328q0 -102 27 -147.5t90 -45.5 q77 0 115 72.5t53 239.5zM2114 418q6 62 6 112q0 105 -28 152t-91 47q-87 0 -129.5 -102t-42.5 -328q0 -102 27 -147.5t90 -45.5q77 0 115 72.5t53 239.5zM803 1024q-8 -85 -18.5 -145t-33 -119.5t-56 -95.5t-87 -58t-125.5 -22q-137 0 -192 81.5t-55 235.5q0 59 6 123 q8 85 18.5 143.5t32.5 115.5t55 90.5t86 54t125 20.5q139 0 194.5 -76.5t55.5 -226.5q0 -57 -6 -121zM1595 426q-8 -85 -18.5 -145t-33 -119.5t-55.5 -95.5t-86.5 -58t-125.5 -22q-137 0 -192.5 81.5t-55.5 235.5q0 59 6 123q8 85 18.5 143.5t32.5 115.5t55.5 90.5t86.5 54 t125 20.5q139 0 194.5 -76.5t55.5 -226.5q0 -46 -7 -121zM2255 426q-8 -85 -18.5 -145t-33 -119.5t-56 -95.5t-87 -58t-125.5 -22q-137 0 -192 81.5t-55 235.5q0 59 6 123q8 85 18.5 143.5t32.5 115.5t55 90.5t86 54t125 20.5q139 0 194.5 -76.5t55.5 -226.5q0 -57 -6 -121z " />
<glyph unicode="&#x2039;" horiz-adv-x="624" d="M465 188h-133l-146 424l220 424h137l-168 -424z" />
<glyph unicode="&#x203a;" horiz-adv-x="624" d="M285 188h-138l168 424l-90 424h133l146 -424z" />
<glyph unicode="&#x2044;" horiz-adv-x="471" d="M768 1659l-815 -1864h-164l815 1864h164z" />
<glyph unicode="&#x20ac;" horiz-adv-x="962" d="M975 1415l-53 -143q-120 26 -197 26q-48 0 -81 -12t-63.5 -45.5t-52.5 -96.5t-39 -161h334l-53 -149h-301q-10 -71 -18 -199h282l-55 -150h-234v-32q0 -99 11 -163t36 -97.5t56 -45.5t78 -12q72 0 200 29l-14 -146q-120 -32 -188 -32q-74 0 -128 14t-99 47.5t-72.5 90.5 t-42.5 143t-15 204h-133l55 150h82q5 79 17 199h-123l53 149h92q20 116 50 198t67.5 134t91.5 81.5t113.5 40.5t142.5 11q93 0 201 -33z" />
<glyph unicode="&#x2122;" horiz-adv-x="1515" d="M1395 397h-135l81 922l-211 -580h-129l-110 580l-82 -922h-133l82 916h-205l-82 -916h-139l82 916h-238l10 121h820l84 -486l165 486h232z" />
<glyph unicode="&#x2126;" horiz-adv-x="1122" d="M457 0h-334l12 147h117q-88 101 -88 355q0 33 12 231q13 151 33.5 260t57 198.5t89.5 144t130 83.5t180 29q204 0 290 -121t86 -383q0 -56 -10 -211q-21 -233 -62 -372.5t-118 -213.5h123l-12 -147h-334l12 154q90 35 137 165t70 404q12 144 12 246q0 186 -47.5 257.5 t-159.5 71.5q-95 0 -151 -50.5t-90.5 -173.5t-55.5 -351q-12 -138 -12 -238q0 -150 29.5 -228.5t95.5 -104.5z" />
<glyph unicode="&#x2202;" horiz-adv-x="962" d="M139 436q8 94 20 159t37 128.5t63.5 101.5t99.5 61t145 23q122 0 211 -63q6 88 6 155q0 97 -12 158.5t-39 93t-60 42t-86 10.5q-73 0 -219 -33l12 145q109 31 199 31q76 0 131 -11t104.5 -41t79.5 -81.5t47 -135t17 -198.5q0 -75 -10 -195q-15 -174 -32.5 -296.5 t-43.5 -213.5t-56.5 -146t-76.5 -88t-97.5 -44.5t-125.5 -11.5q-67 0 -121.5 18.5t-100 59.5t-71 114.5t-25.5 175.5q0 24 4 82zM506 762q-44 0 -75 -14t-51 -38.5t-33.5 -69.5t-20.5 -94t-13 -124q-4 -58 -4 -80q0 -107 39.5 -158t128.5 -51q49 0 80.5 19.5t60 79t48 174 t36.5 301.5q-90 55 -196 55z" />
<glyph unicode="&#x2206;" horiz-adv-x="1044" d="M973 0h-942l489 1434h228zM772 150l-149 1134l-359 -1134h508z" />
<glyph unicode="&#x220f;" horiz-adv-x="1155" d="M1153 1280h-184l-90 -1040q0 -5 -1 -15t-1 -14q0 -37 13.5 -52.5t47.5 -15.5q10 0 21 2t21.5 5.5t12.5 3.5l-12 -144q-68 -14 -125 -14q-64 0 -112 49.5t-48 149.5q0 6 1 17t1 17l93 1051h-269l-110 -1280h-179l111 1280h-162l15 154h970z" />
<glyph unicode="&#x2211;" horiz-adv-x="962" d="M819 -348h-788l18 192l406 703l-258 692l18 195h737l-14 -154h-557l268 -733l-428 -744h613z" />
<glyph unicode="&#x2212;" horiz-adv-x="1126" d="M981 563h-778l12 154h778z" />
<glyph unicode="&#x2215;" horiz-adv-x="471" d="M768 1659l-815 -1864h-164l815 1864h164z" />
<glyph unicode="&#x2219;" horiz-adv-x="593" d="M436 553h-225l20 225h226z" />
<glyph unicode="&#x221a;" horiz-adv-x="1136" d="M1280 1526h-231l-492 -1526h-262l-174 803h182l129 -678l498 1554h362z" />
<glyph unicode="&#x221e;" horiz-adv-x="1495" d="M510 862q-105 0 -160 -51t-55 -166q0 -84 45.5 -120t136.5 -36q119 0 170 55.5t62 190.5q-19 59 -72.5 93t-126.5 34zM776 502q-43 -76 -121.5 -119t-187.5 -43q-165 0 -253.5 77.5t-88.5 217.5q0 377 401 377q184 0 262 -162q91 162 308 162q166 0 255 -77.5t89 -217.5 q0 -377 -404 -377q-182 0 -260 162zM1055 489q104 0 159.5 50.5t55.5 165.5q0 84 -45.5 120.5t-137.5 36.5q-118 0 -168.5 -55t-62.5 -191q20 -60 73.5 -93.5t125.5 -33.5z" />
<glyph unicode="&#x2224;" horiz-adv-x="593" d="M436 553h-225l20 225h226z" />
<glyph unicode="&#x2227;" horiz-adv-x="593" d="M436 553h-225l20 225h226z" />
<glyph unicode="&#x222b;" horiz-adv-x="665" d="M-102 -471l14 145q74 -18 162 -18q55 0 86.5 26.5t34.5 71.5l147 1676q12 132 81.5 196t201.5 64q82 0 190 -21l-12 -145q-77 18 -166 18q-53 0 -84.5 -26.5t-36.5 -71.5l-145 -1675q-21 -261 -283 -261q-82 0 -190 21z" />
<glyph unicode="&#x2248;" horiz-adv-x="1044" d="M184 352l13 160q119 68 215 68q56 0 147 -40t143 -40q83 0 197 73l-14 -159q-109 -68 -215 -68q-58 0 -145 40t-144 40q-85 0 -197 -74zM213 700l14 160q119 68 215 68q56 0 147.5 -40t143.5 -40q81 0 197 74l-15 -160q-109 -68 -215 -68q-58 0 -144.5 40t-143.5 40 q-83 0 -199 -74z" />
<glyph unicode="&#x2260;" horiz-adv-x="1126" d="M997 768h-227l-180 -256h385l-12 -154h-482l-151 -215h-164l151 215h-133l13 154h229l180 256h-387l14 154h482l151 215h164l-151 -215h133z" />
<glyph unicode="&#x2264;" horiz-adv-x="1126" d="M952 256l-749 317l18 215l811 367l-16 -190l-656 -279l611 -240zM932 0h-778l12 154h778z" />
<glyph unicode="&#x2265;" horiz-adv-x="1126" d="M981 573l-807 -317l19 195l651 239l-606 279l16 188l745 -369zM932 0h-778l12 154h778z" />
<glyph unicode="&#x22c5;" horiz-adv-x="593" d="M436 553h-225l20 225h226z" />
<glyph unicode="&#x25af;" horiz-adv-x="1028" d="M113 0l125 1434h761l-125 -1434h-761zM279 147h454l98 1139h-454z" />
<glyph unicode="&#x25ca;" horiz-adv-x="962" d="M922 717l-349 -717h-229l-221 717l350 717h225zM748 717l-170 573l-281 -573l172 -574z" />
<glyph unicode="&#xe000;" horiz-adv-x="1024" d="M0 1024h1024v-1024h-1024v1024z" />
</font>
</defs>
</svg>
